<?xml version="1.0" standalone="no"?>
<!DOCTYPE svg PUBLIC "-//W3C//DTD SVG 1.1//EN" "http://www.w3.org/Graphics/SVG/1.1/DTD/svg11.dtd" >
<svg xmlns="http://www.w3.org/2000/svg">
<metadata>Generated by IcoMoon</metadata>
<defs>
<font id="mfglabs" horiz-adv-x="1024">
<font-face units-per-em="1024" ascent="877.5" descent="-146.5" />
<missing-glyph horiz-adv-x="1024" />
<glyph unicode="&#x20;" horiz-adv-x="0" d="" />
<glyph unicode="&#x2b;" glyph-name="plus" horiz-adv-x="900" d="M0 291.5v122q0 21 14.75 35.75t35.75 14.75h288v287.5q0 21 14.75 36t35.75 15h122q21 0 35.5-15t14.5-36v-287.5h288q21 0 36-14.75t15-35.75v-122q0-21-15-35.75t-36-14.75h-288v-289q0-21-14.5-35.5t-35.5-14.5h-122q-21 0-35.75 14.5t-14.75 35.5v289h-288q-21 0-35.75 14.75t-14.75 35.75z" />
<glyph unicode="&#x40;" glyph-name="at" horiz-adv-x="910" d="M0 342.5q0 201.5 133 341.5 140 148 359 148 179 0 295-101 123.5-107 123.5-284 0-138.5-78.5-239-77.5-100-178.5-100-51 0-80 32-28 32-28 66.5 0 1.5 0.5 4.25t0.5 4.75q0 1.5 0.25 5.5t0.25 6q-22.5-45.5-48-70-47.5-47.5-115-47.5-68 0-113.5 53-46 53.5-46 149 0 111 70 208 70.5 97.5 170 97.5 58.5 0 92.5-35.5 25.5-28.5 33.5-63.5l20 77h106.5l-72.5-266q-3-12.5-7.25-28.75t-4.75-19.25q-3.5-14.5-3.5-27.5 0-18.5 11.5-34.5 11.5-16.5 36-16.5 48.5 0 98 69 49 70 49 183.5 0 168.5-134 242.5-82 46.5-188 46.5-192.5 0-308.5-128-105-114.5-105-277 0-180.5 123.5-284.5 109.5-93 265.5-93 108 0 200.5 43.5 51 22.5 105.5 64.5l13.5 10q4 3.5 10 5.75t13.75 3 15.75-4.5 13-16.75q6-16.5 3.5-29t-8.5-19.5l-6.5-7.5q-79.5-67.5-173.5-103.5-94.5-35.5-193.5-35.5-234.5 0-363.5 159-107 131-107 311.5zM348 299.5q0-44.5 19-72.5 18.5-27.5 53-27.5 60 0 99.5 99.5 38 100 38 157 0 33-17.5 55-18 22-48.5 22-59 0-101-79.5-42.5-79-42.5-154z" />
<glyph unicode="&#x2190;" glyph-name="arrow-left" horiz-adv-x="961" d="M0 355l400 400.5q19.5 18.5 44.5 18.5 25.5 0 44-18.5t18.5-44.25-18.5-44.75l-249-248.5h657.5q26.5 0 45-18.5t18.5-44.5-18.5-44-45-18h-657.5l249-249.5q18.5-18.5 18.5-44.25t-18.5-44.25-44.25-18.5-44.25 18.5z" />
<glyph unicode="&#x2191;" glyph-name="arrow-up" horiz-adv-x="837" d="M0 356.25q0 26.25 18.5 44.75l400 400 400.5-400q18-18.5 18-45 0-26-18-44-18.5-18.5-44.5-18.5t-44 18.5l-249.5 249v-657.5q0-26-18-44.25t-44.5-18.25q-26 0-44.25 18.25t-18.25 44.25v657.5l-249-249q-18.5-18.5-44.25-18.5t-44.25 18.5q-18.5 18-18.5 44.25z" />
<glyph unicode="&#x2192;" glyph-name="arrow-right" horiz-adv-x="961" d="M0 349q0 26.5 18.25 44.25t44.25 17.75h658l-248.5 250q-19 18.5-19 44.5t19 43.5q18 19 43.25 19t45.25-19l400-400-400-400q-20.5-19-45-19t-43.5 19-19 44.75 19 43.75l248.5 248.5h-658q-26 0-44.25 18.5t-18.25 44.5z" />
<glyph unicode="&#x2193;" glyph-name="arrow-down" horiz-adv-x="837" d="M0 283.5q0 25.5 18.5 44t44.5 18.5 44-18.5l249-248.5v657q0 26.5 18.5 44.75t44.5 18.25 44-18.25 18-44.75v-657l249.5 248.5q18.5 18.5 44.25 18.5t44.25-18.5q18.5-18 18.5-44t-18.5-44.5l-400-400-400.5 400q-18.5 19.5-18.5 44.5z" />
<glyph unicode="&#x21c7;" glyph-name="arrow-big-left" d="M0 352q0 9 5.25 18t10.75 13.5l5 4.5 596 371q32.5 22 55.75 8t23.25-55v-150h209.5q22 0 38.25-16t16.25-38v-312q0-22-16.25-38t-38.25-16h-209.5v-150.5q0-41-23.25-54.5t-55.75 8l-596 371q-21 15-21 36z" />
<glyph unicode="&#x21c8;" glyph-name="arrow-big-up" horiz-adv-x="839" d="M4.75 159.25q-13.75 23.25 7.75 55.75l371.5 596q15 21 35.5 21 9.5 0 18.5-5.25t13-10.25l4.5-5.5 371.5-596q21.5-32.5 7.75-55.75t-54.75-23.25h-150.5v-209.5q0-22-15.75-38.25t-37.75-16.25h-312.5q-22 0-38 16.25t-16 38.25v209.5h-150q-41 0-54.75 23.25z" />
<glyph unicode="&#x21c9;" glyph-name="arrow-big-right" d="M0 197v312q0 22 16.25 37.75t38.25 15.75h209.5v150.5q0 41 23.25 54.5t55.75-8l596-370.5q21-15.5 21-36 0-9.5-5.25-18.5t-10.75-13l-5-4.5-596-372q-32.5-21.5-55.75-7.75t-23.25 54.75v150.5h-209.5q-22 0-38.25 16.25t-16.25 38.25z" />
<glyph unicode="&#x21ca;" glyph-name="arrow-big-down" horiz-adv-x="840" d="M4.75 545q13.75 23 54.75 23h151v210q0 22 15.75 38t37.75 16h312q22 0 38.25-16t16.25-38v-210h150q41 0 54.75-23t-7.75-55.5l-371.5-596q-1.5-2.5-4.75-6t-12.5-9.5-18.75-6-18.5 5.25-13.5 10.75l-4 5.5-371.5 596q-21.5 32.5-7.75 55.5z" />
<glyph unicode="&#x21d0;" glyph-name="arrow-doubled-left" d="M0 367.5l540 390v-210h420v-360h-420v-240.5z" />
<glyph unicode="&#x21d1;" glyph-name="arrow-doubled-up" horiz-adv-x="810" d="M0 282.5l406.5 549.5 404-549.5h-221.5v-410.5h-368v410.5h-221z" />
<glyph unicode="&#x21d2;" glyph-name="arrow-doubled-right" d="M0 168v368h410.5v221.5l549.5-406.5-549.5-404v221h-410.5z" />
<glyph unicode="&#x21d3;" glyph-name="arrow-doubled-down" horiz-adv-x="810" d="M0 421.5h220.5v410.5h368.5v-410.5h220.5l-405.5-549.5z" />
<glyph unicode="&#x2212;" glyph-name="minus" horiz-adv-x="899" d="M0 291v122.5q0 21 14.75 35.5t35.75 14.5h798q21 0 36.25-14.5t14.75-35.5v-122.5q0-21-15-35.5t-36-14.5h-798q-21 0-35.75 14.5t-14.75 35.5z" />
<glyph unicode="&#x2302;" glyph-name="home" horiz-adv-x="939" d="M0.25 342.25q-2.75 15.75 21.25 37.75l390 360q24 22 58.25 22t58.25-22l389.5-360q24-22 21.25-37.75t-30.75-15.75h-93.5v-312.5q0-32.5-23.5-56t-56-23.5h-530.5q-32.5 0-56 23.5t-23.5 56v312.5h-94q-28 0-30.75 15.75z" />
<glyph unicode="&#x231b;" glyph-name="hourglass" horiz-adv-x="600" d="M0-44v71.5q0 22.5 12 50.25t24.75 47.25 38.75 56.5l24.75 33t27.25 37.25 22.25 33.75 18 36 5.75 30.5-5.75 30.5-18 36-22.25 33.75-27.25 37.25l-24.75 33q-26.5 37.5-39 56.5t-24.5 46.75-12 50.25v71.5q0 35 25 59.75t60.5 24.75h429q35.5 0 60.5-24.75t25-59.75v-71.5q0-22.5-12-50.25t-24.5-46.75-39-56.5l-24.75-33t-27.25-37.25-22.25-33.75-18-36-5.75-30.5 5.75-30.5 18-36 22.25-33.75 27.25-37.25l24.75-33q26-37 38.75-56.5t24.75-47.25 12-50.25v-71.5q0-35-25-59.5t-60.5-24.5h-429q-35.5 0-60.5 24.5t-25 59.5zM102.5-8h40.5q0 8.5 2.5 17.25t8.75 18 12.25 17 17.5 17.75 19.5 16.75 23 17.5 23.25 16.75 25.5 17.75 24.75 17.25q8-5.5 27.25-19t28.5-20 25.75-18.75 25-20 19.75-19 16.75-20 9.75-19.25 4.25-20h40.5v35.5q0 7.5-13.5 32-8.5 14.5-43.5 64.5-54.5 77-73 110.5-35 65-35 117.5 0 27 8 55.25t25.5 59 30.5 50.5 36.5 52.75l7.5 10.5q33.5 47.5 43.5 65 6 10 9.25 17.75t3.75 10.75l0.5 2.5v35.5h-395v-35.5q0.5-8 13.5-31 10-17.5 43.5-65 54.5-77 73-110.5 35-65 35-117.5 0-27-8-55.25t-25.5-59-30.5-50.5-36.5-52.75q-1-1.5-1.75-2.5t-2-2.5-2-2.75-1.75-2.75q-35-50-43.5-64.5-13.5-24.5-13.5-32v-35.5z" />
<glyph unicode="&#x23f1;" glyph-name="stopwatch" horiz-adv-x="1057" d="M0 626l251.5 251.5 84-84-42-42 44-44q59 35.5 126.5 53.5v104h237v-104q101.5-26.5 182.25-92.5t127-162 46.25-204.5q0-96.5-37.5-184.25t-101-151.5-151.25-101.5-184.25-37.75-184.5 37.75-151.5 101.5-101 151.5-37.5 184.25q0 126 63.5 236.5l-46 45-41.5-41.5zM227 302q0-96.5 47.75-178.5t129.5-130 178.25-48 178.5 48 129.75 130 47.75 178.5-47.75 178.25-129.75 129.5-178.5 47.75-178.25-47.75-129.5-129.5-47.75-178.25zM348 435q0 24.5 17 42 17.5 17.5 42 17.5t42-17.5l143-143h203q24.5 0 41.75-17.5t16.75-42q0-25.5-17-41.5-18-18-41.5-18h-227q-4 0-12 1l-5 2-6 1.5q-1.5 0.5-3.25 1.75t-2.25 1.25l-4.5 3q-3.5 1.5-9.5 7.5l-160.5 160.5q-17 17-17 41.5z" />
<glyph unicode="&#x23f2;" glyph-name="clock" d="M0 352q0 97.5 38 186.5t102.25 153.25 153.25 102.25 186.5 38 186.5-38 153.25-102.25 102.25-153.25 38-186.5-38-186.5-102.25-153.25-153.25-102.25-186.5-38-186.5 38-153.25 102.25-102.25 153.25-38 186.5zM120 352q0-98 48.25-180.75t131.25-131 180.5-48.25q98 0 180.75 48.25t131 131 48.25 180.75q0 97.5-48.25 180.5t-131 131.25-180.75 48.25q-73 0-139.75-28.5t-115-76.75-76.75-115-28.5-139.75zM420 352v230q0 24.5 17.5 42.25t42.5 17.75 42.5-17.75 17.5-42.25v-205l145-145q17.5-17.5 17.5-42.5t-17.5-42.5-42-17.5q-25 0-42.5 17.5l-163 162.5q-1.5 1.5-3.75 4.75t-3.25 4.25q-1 1.5-2.5 4.5l-1.5 3t-1.5 3.5q-0.5 0.5-2 5.5-1.5 4.5-1.5 5-1.5 6-1.5 12z" />
<glyph unicode="&#x2601;" glyph-name="cloud" horiz-adv-x="1234" d="M0.25 256.5q-2.25 46 10 88.25t35.5 79.75 58.75 66.5 79 46q79 30 159.5 13 37.5 82.5 114 132.75t170 50.25q63.5 0 121.25-24.75t99.5-66.5 66.5-99.5 24.75-121.25q0-9.5-2-27.5 1.5 0 3.75 1t3.25 1q82.5 32 163-3.75t112.5-118.25q20-57 12-110.75t-44-99-90.5-66.25q-37.5-14-74-14.5l-736.5 0.5q-87.5 0-161.25 49.75t-105.75 133.75q-17 43.5-19.25 89.5z" />
<glyph unicode="&#x2605;" glyph-name="star" horiz-adv-x="954" d="M1.5 464.5q12 38 104 38h231l70.5 212.5v1q19 57 44.5 77.25t50.75 0 44.25-77.25l0.5-1 70-212.5h231q60 0 87-17.5t15.25-47.25-60.75-64.75l-5-4-181-129.5 69.5-212 1.5-2q28-87-4.5-111.25t-107 29.25l-3 2-2.5 1.5-181 130-183.5-131.5-2-2q-74.5-53.5-107.5-29.25t-4 111.25l0.5 1v1.5l69.5 211.5-181 129.5-2 2-2.5 2q-74.5 53.5-62.5 91.5z" />
<glyph unicode="&#x2606;" glyph-name="star-empty" horiz-adv-x="1022" d="M3.25 440.5q-12.75 32 16.25 50.75t93.5 18.75h247.5l75.5 228v1q15 46 34.5 69.5t40.5 23.5q20.5 0 40-23.5t34.5-69.5l1-1 74.5-228h247.5q64.5 0 93.5-18.75t16.25-50.75-65.25-69.5l-5-4-194.5-139 75-226 1-3.5q19.5-61 11.25-93.25t-40.75-32.25q-37.5 0-89.5 38.5l-6 3.5-193.5 139-199.5-142.5q-53.5-39.5-90-39.5-32.5 0-40.75 32.75t11.25 93.75l1 3.5 75 226-194.5 139-2 2.5-3 1.5q-52.5 37.5-65.25 69.5zM172.5 414l208-148.5-21.5-67-58.5-177 210.5 150.5 210-150.5-58 177-22 67 208 148.5h-257l-21.5 66-59.5 179.5-81.5-245.5h-257z" />
<glyph unicode="&#x2640;" glyph-name="female-sign" horiz-adv-x="583" d="M0 541q0 59 23.25 113t62.25 93 93 62 113 23q78.5 0 145.75-39t106.5-106 39.25-146q0-101.5-63-180.25t-159.5-102.25v-80.5h98q29 0 49.25-20t20.25-49-20.25-49.5-49.25-20.5h-98v-97.5q0-29-20-49.25t-49-20.25-49.5 20.25-20.5 49.25v97.5h-97.5q-29 0-49 20.5t-20 49.5 20 49 49 20h97.5v80.5q-96.5 23.5-159 102.25t-62.5 180.25zM139.5 541q0-63 44.5-107.5t107.5-44.5 107.5 44.5 44.5 107.5-44.5 107.5-107.5 44.5-107.5-44.5-44.5-107.5z" />
<glyph unicode="&#x2642;" glyph-name="male-sign" horiz-adv-x="772" d="M0 265q0 60.5 23.5 115.5t63.5 95 95 63.5 115.5 23.5q83 0 154.5-43l105.5 106h-48.5q-23.5 0-40.25 16.5t-16.75 40 16.75 40 40.25 16.5h206.5q23.5 0 40-16.5t16.5-40v-206q0-23.5-16.5-40.25t-40-16.75-40.25 16.75-16.75 40.25v49l-106-106q43.5-71 43.5-154 0-81-40-149.75t-108.75-109-149.75-40.25q-80.5 0-149.25 40.25t-108.5 109-39.75 149.75zM142.5 265q0-64 45.5-110t109.5-46q64.5 0 110.25 45.75t45.75 110.25-45.75 110.25-110.25 45.75q-64 0-109.5-46t-45.5-110z" />
<glyph unicode="&#x265a;" glyph-name="crown" horiz-adv-x="930" d="M2 605q9 43 46 67 37 24.5 80.25 15.5t67.25-46q18.5-29.5 17-62.5t-21-59.5q23-33 46-55.75t42.25-33 33-14 26.25-3.75q2 0.5 20 3 21.5 0 36.5 16t22.5 43.75 10.75 54.75 3.75 58.5q-32.5 10-53.25 38t-20.75 63q0 44 31 75t75.5 31 75.5-31 31-75q0-35-20.75-63t-53.25-38q0.5-31.5 3.75-58.5t10.75-54.75 22.75-43.75 36.75-16q2-0.5 6-1t7.25-1 6.25-1q12.5 0 26.5 3.75t33.25 14 42.25 33 46 55.75q-20 26.5-21.5 59.75t17 62.25q24 37 67 46t80-15.5q37-24 46.25-67t-14.75-80q-19-28.5-50.25-40.75t-63.75-4.25q-30-45-55-101.5t-35-90.5l-10-34q-7.5-33-16-83t-16.25-100.75-10.25-65.25q-5-28.5-37.5-51.5t-74-34.25-80-11.25q-39 0-80.5 11.25t-74 34.25-37.5 51.5q-2.5 14-9.5 65.25t-15.25 101.25-17.25 82.5q-3.5 14-10.75 37.5t-33.25 83.5-56 105q-32.5-8-64 4.25t-50 40.75q-24 37-15 80z" />
<glyph unicode="&#x2665;" glyph-name="heart" d="M0 537q0 105.5 75.25 180.25t181.25 74.75q71 0 130.5-35.5t93-94.5q33.5 59 93 94.5t130.5 35.5q106 0 181.25-74.75t75.25-180.25q0-98-65-170l-351-413.5q-26-31-64-31t-64 31l-351 413.5q-65 72-65 170z" />
<glyph unicode="&#x2693;" glyph-name="anchor" horiz-adv-x="835" d="M-0.5 200.75q0 7.75 5 13.25l104.5 125.5 22.5-28 79.5-98.5q5-6.5 4-14t-7.5-12.5q-11-8.5-23 0l-24 19.5q16.5-62 64.5-103.25t116.5-56.25q6-0.5 10.5 0t10.75 7.5 6.25 21v398.5q0 10-6 16t-12 7l-5.5 1h-41q-20 0-34.25 14t-14.25 34 14 34 34.5 14h42.5q2 0.5 3.75 1t4.5 1.75 5 3 4.25 4.25 3.25 6.25 1.25 8.25v10q-31.5 14-50.75 43.5t-19.25 65.5q0 48.5 34.5 83.25t83.5 34.75 84-34.75 35-83.25q0-36-19.75-65.5t-51.25-43.5v-10.5q0-4.5 1.25-8t3.5-6 4.5-4.25 4.75-2.75 4.5-1.75 3.5-1.25h44q19.5 0 33.75-14t14.25-34q0-19.5-14.25-33.75t-33.75-14.25h-42q-2.5 0-6.5-0.75t-10.75-6.75-6.75-16v-399q0-14 6.25-21t11-7.5 10.75 0q68.5 15 116.75 56.25t64.75 103.25l-24-19.5q-6.5-5-13.75-4t-12.75 6.5q-8.5 12.5 0 24l79.5 98.5 22 28 105-125.5q5-6.5 4.25-15.5t-7.25-14.5q-6-5-14-5t-13.5 5l-30.5 26q-17-105-89.25-183.25t-174.75-104.75q-1-1-2-1-14.5-3.5-25.25-13t-14.25-22q-4-16-17-26.25t-30-10.25q-16.5 0-29.25 10.25t-16.75 26.25q-3.5 12.5-14.25 22t-25.25 13q-1.5 0-2.5 1-102.5 26.5-174.75 104.75t-89.25 183.25l-30-26q-6.5-5.5-15.5-4.75t-15 7.75q-5 6-5 13.75zM358.5 737q0-19.5 10.5-35v5q0 20 14 34t34 14 34-13.75 14-34.25v-5q11.5 16 11.5 35 0 24-17.5 41t-42 17-41.5-17-17-41z" />
<glyph unicode="&#x26a1;" glyph-name="high-voltage" horiz-adv-x="578" d="M0 347.5l396 478q4 4 9.5 4.5t9.5-3q6.5-5.5 4-13.5l-106.5-352 265-106-394-477q-3.5-4-9.25-4.5t-9.75 3q-6.5 6-4 13.5l106.5 352.5z" />
<glyph unicode="&#x2709;" glyph-name="mail" horiz-adv-x="1140" d="M0 22v660q0 8 2.5 19l471-472q39.5-39.5 97-39.5 56.5 0 96 39.5l472 472q1.5-10 1.5-19v-660q0-37-26.25-63.5t-63.25-26.5h-960q-37 0-63.75 26.5t-26.75 63.5zM64.5 768q13 4 26 4h960q12 0 25-4l-474.5-474q-12.5-12.5-31-12.5t-31 12.5z" />
<glyph unicode="&#x270f;" glyph-name="pen" horiz-adv-x="953" d="M0-128l61 288 643 643.5q21.5 21.5 51.75 21.5t51.25-21l124.5-124.5q21.5-21.5 21.25-51.25t-21.25-51.25l-643.5-643.5zM69.5-58l199 46 24 25-152.5 152.5-24.5-24.5z" />
<glyph unicode="&#x2712;" glyph-name="vector-pen" horiz-adv-x="911" d="M7.5 125q-17-17 4.75-59t59.5-80.25 79.25-60.25 59.5-4l228 228.5q-56.5 39-110 92.5-24 24-47.25 51.25t-34.25 42.75l-11.5 15.5zM285 367.25q-8 24.25 3.5 35.25 11.5 11.5 23.5 42t17.5 62l4 21q5.5 31.5 30.75 63.5t54.25 44.5l406.5 181.5q29.5 12.5 34.5 5.25t-18-30.25l-208-207q-43.5-44.5-54-54.5-21.5 10.5-46.75 6.5t-43.25-21.5q-23-23-23-55.5t23-56q23.5-23.5 56-23.5t55.5 23.5q17.5 17.5 21.75 42.5t-6.25 46.5q14.5 15 54 54.5l208 208q23 23 30 18t-5.5-34.5l-181.5-407q-13-29-44.75-53.75t-63.75-30.25l-20.5-4q-31.5-5.5-62-17.5t-42-23.5-35.25-3.5-46.75 31l-90.5 89.5q-23 23-31 47.25z" />
<glyph unicode="&#x2713;" glyph-name="check" horiz-adv-x="943" d="M0 340.75q0-35.75 25-60.75l251.5-245.5q25-25 62-25 36 0 61 25l517.5 507q26 25 26 60.5t-26 60q-26 25-61.75 25t-61.75-25l-455-446.5-190 186q-26 25-61.75 25t-61.75-25q-25-25-25-60.75z" />
<glyph unicode="&#x274c;" glyph-name="cross-mark" horiz-adv-x="703" d="M0 86q0 36.5 26.5 63l200 200-200 200.5q-26.5 26-26.5 62.5t26.5 62.5 62.75 26 62.25-26l200.5-200.5 200 200.5q26 26 62.5 26t62.5-26 26-62.5-26-62.5l-200-200.5 200-200q26-26.5 26-63t-26-62.5q-25.5-26-62.5-26t-62.5 26l-200 200-200.5-200q-25.5-26-62.5-26t-62.5 26q-26.5 26-26.5 62.5z" />
<glyph unicode="&#x2753;" glyph-name="black-question" d="M0 352q0 97.5 38 186.5t102.25 153.25 153 102.25 186.75 38q97.5 0 186.5-38t153.25-102.25 102.25-153.25 38-186.5-38-186.5-102.25-153.25-153.25-102.25-186.5-38q-98 0-186.75 38t-153 102.25-102.25 153.25-38 186.5zM341.5 532l31.5-104q47 30 94.5 30 51 0 51-23 0-4.5-1.75-8.25t-6.25-7.5-7.25-5.5-10.25-5.75-9.5-5l-41-21.5q-22-12-28.25-25.5t-6.25-37.5v-38.5h119.5v16q0 7.5 0.25 10.5t2.5 6.25 6.75 5.25q0.5 0 10.75 5t18 8.75 18.75 10.75 18.5 13.5q20 17 30.5 37.5t10.5 57q0 50.5-42.75 85t-108.25 34.5q-87.5 0-151.5-38zM390.5 190.5q0-32.5 21-50.25t56.5-17.75q34.5 0 55.5 17.75t21 50.25-21 50.5-55.5 18q-35.5 0-56.5-18t-21-50.5z" />
<glyph unicode="&#x2754;" glyph-name="white-question" d="M0 352q0 98 38 186.75t102.25 153 153 102.25 186.75 38q97.5 0 186.5-38t153.25-102.25 102.25-153 38-186.75q0-97.5-38-186.25t-102.25-153.25-153.25-102.5-186.5-38q-98 0-186.75 38t-153 102.5-102.25 153.25-38 186.25zM120 352q0-73 28.5-139.75t76.75-115 115-76.75 139.75-28.5 139.75 28.5 115 76.75 76.75 115 28.5 139.75q0 98-48.25 180.75t-131.25 131-180.5 48.25-180.5-48.25-131.25-131-48.25-180.75zM341.5 533l31.5-104q46 29.5 95 29.5 50.5 0 50.5-23.5 0-4-1.75-7.5t-3.75-5.75-6.25-5.25-6.75-4.5-8.5-4.5l-8-4-41-22q-22-12-28.25-25.5t-6.25-37.5v-37.5h119.5v16q0 7.5 0.5 10.5t2.5 5.75 6.5 5.25q1 0.5 10.75 5t17.75 8.5 19 10.75 19 13.25q19.5 17.5 30 38t10.5 56.5q0 50.5-42.75 85.25t-108.25 34.75q-85 0-151.5-37.5zM390.5 190.5q0-32.5 21-50.25t56.5-17.75q34.5 0 55.5 17.75t21 50.25-21 50.5-55.5 18q-35.5 0-56.5-18t-21-50.5z" />
<glyph unicode="&#x2755;" glyph-name="warning-alt" d="M0 352q0 98 38 186.75t102.25 153 153 102.25 186.75 38q97.5 0 186.5-38t153.25-102.25 102.25-153 38-186.75q0-97.5-38-186.5t-102.25-153.25-153.25-102.25-186.5-38q-98 0-186.75 38t-153 102.25-102.25 153.25-38 186.5zM120 352q0-98 48.25-180.75t131.25-131 180.5-48.25q98 0 180.75 48.25t131 131 48.25 180.75q0 97.5-48.25 180.5t-131 131.25-180.75 48.25q-73 0-139.75-28.5t-115-76.75-76.75-115-28.5-139.75zM397 553.5q-3.5 36 19.5 64t59.5 31.5q36 3.5 64-19.5t31.5-59q1-9 0-17l-27.5-250.5q-2-24.5-21.25-40.25t-44.25-13.25q-21.5 2-36.75 17.25t-17.75 36.25zM409 132q0 32 22.5 53 20.5 21 52.75 21t52.75-21q22.5-21 22.5-53t-22.5-53q-21-22.5-53-22.5-31.5 0-52.5 22.5-22.5 21-22.5 53z" />
<glyph unicode="&#x2757;" glyph-name="warning" d="M0 352q0 98 38 186.75t102.25 153 153 102.25 186.75 38q97.5 0 186.25-38t153.25-102.25 102.5-153 38-186.75q0-97.5-38-186.5t-102.5-153.25-153.25-102.25-186.25-38q-98 0-186.75 38t-153 102.25-102.25 153.25-38 186.5zM396.5 553.5l27.5-250.5q2.5-21 17.75-36.25t36.75-17.25q24.5-2.5 43.75 13t21.75 40.5l27.5 250.5v17q-4 36-32 59t-64 19.5-59.25-31.5-19.75-64zM409 132q0-31 22-53t53-22 53 22 22 53-22 53q-21 21-53 21t-53-21q-22-22-22-53z" />
<glyph unicode="&#x9881;" glyph-name="settings" d="M0 354.5q0 38.5 7.5 84.5 51-3.5 96.75 20t71.75 69q26 47 23.5 98t-31 93.5q66 57 154 88 23.5-42.5 65.5-67.75t92-25.25 91.75 25.25 65.25 67.75q87-31 154-88-22-40.5-22-87.25t24-88.25q24.5-42.5 66.5-66t89.5-23.5q11-50.5 11-100 0-33-7-76.5-46-1-86.25-24.75t-64.25-65.25q-25.5-45-24.25-94.25t27.25-90.75q-67.5-62-149-95-23.5 43-65.75 68.5t-92.25 25.5q-53.5 0-97.75-28.75t-65.75-76.25q-84.5 27-156.5 84.5 28.5 42 30.75 92.75t-24.25 97.75q-27 47.5-75.25 71.25t-100.75 17.75q-9 42-9 93.5zM300 354.5q0-74.5 52.75-127.25t127.25-52.75 127.25 52.75 52.75 127.25-52.75 127.25-127.25 52.75-127.25-52.75-52.75-127.25z" />
<glyph unicode="&#xe000;" glyph-name="brush" horiz-adv-x="952" d="M0-50q34.5 20.5 60 47.75t40.75 55.25 27.5 58.25 24.5 60.25 27.5 58.25 41 55.25 60.25 48q55 32.5 117 32.5 59.5 0 113.75-29.75t90.25-82.75q38.5-57.5 39.25-124.75t-31-125.25-86.75-98q-39-28-109.75-45.75t-147.25-17.75q-89.5 0-161.75 26.5t-105.25 82zM138.5-49q51.5-20 128.5-20 65 0 122.5 14t82.5 32.5q35.5 25.5 57 63.25t23.5 80-24 81.75q-23.5 35-57.75 54.25t-72.25 19.25q-36.5 0-71-20-21.5-13-37.25-28t-28-36.25-19.5-37.25-19.25-46.5q-13-33.5-21.25-52.5t-25.75-49.75-38-54.75zM431 415l75.5 114q72-17.5 132.5-57.5 60-40.5 102.5-98l-76.5-114.5q-38.5 65.5-98.5 106-60 39.5-135.5 50zM536.5 574l170.5 254q14 20.5 37.75 25.5t44.25-8l136-90.5q20.5-14 25.5-37.75t-9-44.25l-169.5-254.5q-43.5 58.5-103.5 98.5-60 40.5-132 57z" />
<glyph unicode="&#xe001;" glyph-name="refresh" horiz-adv-x="1123" d="M2 443.25q5 8.75 20.5 8.75h69.5q25.5 121 107.25 214.75t197.25 135.75l4 1.5q28.5 9 34 10.5 6 2 9.5 3l30.5 6.5q3 0.5 8.5 1.5t8 1l12.25 1.75t13.75 1.75q17 1.5 35 1.5 2 0 4.75 0.25t4.25 0.25h1.5q166-1 294-101.5 24.5-18.5 28-49.25t-15.5-55.25q-18.5-24.5-49.25-28t-55.25 15.5q-89.5 69.5-203.5 69.5-15 0-30.5-1.5-1 0-10-1.5-6-0.5-19.5-2.5-2 0-4.25-0.5t-5-1.25-4.25-1.25l-13-3.5q-3-0.5-17.5-4.5l-3.5-1.5q-74-26-128.5-82.25t-78-130.75h44q15.5 0 20.5-8.75t-3-21.25l-138-226.5q-6-8-14-8-3.5 0-6.75 2t-4.75 4l-1.5 2-138.5 226.5q-8 12.5-3 21.25zM239 23.75q-3.5 30.75 15.5 54.75 18.5 24.5 49.25 28.25t55.25-15.25q90-70 203.5-70 14.5 0 30.5 1.5 1.5 0 5 0.25t5 0.75q3 0.5 6.25 1t7.25 1 6 1q1.5 0.5 4.25 1.25t5 1.25 4.25 0.5l13 3.5q2.5 1 8.5 2.5t9 2.5q2 1 3 1 74 26 128.75 82.5t78.25 131h-44.5q-15 0-20 8.5t3 21l138 227q6 8 14 8 3.5 0 6.75-2t4.75-4l1.5-2 138.5-227q8-12.5 3-21t-20.5-8.5h-69.5q-26-121.5-107.75-215t-196.75-135.5l-4-1.5q-11-4-34-11-1.5 0-4.5-1t-5-1.5q-15-4.5-31-6.5-2.5-0.5-8-1.5t-8-1.5l-26-3.5q-5-0.5-11-0.75t-13-0.5-11-0.25q-2 0-4.75-0.5t-4.25-0.5l-1 1-1-1v1q-164.5 0-293.5 101.5-24.5 18.5-28 49.25z" />
<glyph unicode="&#xe002;" glyph-name="node" d="M308 352q0 71.5 50.5 122t121.5 50.5 121.5-50.5 50.5-122-50.5-121.5q-50.5-50.5-121.5-50.5t-121.5 50.5q-50.5 50-50.5 121.5z" />
<glyph unicode="&#xe003;" glyph-name="node-2" d="M155.5 70.75q0 76.25 53.5 130.25 54 53.5 130 53.5t130-53.5q54-54 54-130.25t-54-129.75q-54-54-130-54t-130 54q-53.5 53.5-53.5 129.75zM436.5 633.75q0 76.25 54 129.75 53.5 54 129.5 54t129.5-54q54-53.5 54-129.75t-54-129.75q-53.5-54-129.5-54t-129.5 54q-54 53.5-54 129.75z" />
<glyph unicode="&#xe004;" glyph-name="node-3" horiz-adv-x="924" d="M0 632q0 75.5 53 129 53.5 53.5 129.25 53.5t129.25-53.5q35-35 47.25-82t0-94-47.25-82q-53.5-53.5-129.25-53.5t-129.25 53.5q-53 53.5-53 129zM272 72.25q0 75.75 53 129.25 53.5 53 129.25 53t129.25-53q35-35 47.25-82.25t0-94.25-47.25-82-82.25-47.25-94.25 0-82 47.25q-53 53.5-53 129.25zM559.5 632q0 75.5 53.5 129 53 53.5 128.75 53.5t129.25-53.5 53.5-129-53.5-129-129.25-53.5-128.75 53.5q-53.5 53.5-53.5 129z" />
<glyph unicode="&#xe005;" glyph-name="link-2-nodes" horiz-adv-x="924" d="M0 75q0 76.5 55 131 53.5 53.5 130 53.5 44.5 0 82-18.5l262.5 262q31.5-51.5 83.5-81.5l-262.5-263.5q26.5-51.5 17.25-111t-51.75-103.5q-53.5-53.5-131-53.5-76.5 0-130 53.5-55 55-55 131.5zM88.5 75q0-40.5 28-68.5 29-29 68.5-29t68.5 29 29 68.5-29 68.5q-28.5 28.5-68.5 28.5t-68.5-28.5q-28-28-28-68.5zM555 629.5q0 76.5 54 130.5 54.5 54.5 131 54.5 76 0 130.5-54.5 54-54 54-130.5t-54-130.5-130.5-54q-77 0-131 54t-54 130.5zM643 629.5q0-40 28.5-68.5 28-28 68.5-28t68.5 28 28 68.5-28 68.5q-28.5 28.5-68.5 28.5t-68.5-28.5-28.5-68.5z" />
<glyph unicode="&#xe006;" glyph-name="link-3-nodes" horiz-adv-x="925" d="M0 606.5q0 75 53 128t128.5 53q75 0 128-53 30.5-30.5 44-71h153q-7-29-7-57.5 0-28 7-57h-153q-13-39.5-44-71-53-53-128-53-75.5 0-128.5 53-53 53.5-53 128.5zM87 606q0-39.5 27.5-67.5 27.5-27.5 67-27.5 38.5 0 67.5 27.5 28 28 28 67.5t-28 67.5-67.5 28q-40.5 0-67-28-27.5-28-27.5-67.5zM286.25 51.75q-12.25 46.75 0 93.75t47.25 82q53.5 53.5 129 53.5 74.5 0 128-53.5t53.5-128.75-53.5-128.75q-53-53-128-53-76 0-129 53-35 35-47.25 81.75zM367 99q0-39.5 28-67.5 26.5-28 67.5-28 39 0 67 28 27.5 28 27.5 67.5t-27.5 67.5q-29.5 28-67 28-39.5 0-67.5-28t-28-67.5zM526.5 334l81.5 151q-48 53.5-46.25 126t52.75 123.5q53 53 128.5 53t128.5-53q35-35 47.25-81.5t0-93.25-47.25-81.75q-53-53-128.5-53-16 0-35 2.5l-81-149.5q-41.5 39-100.5 56zM648 606q0-39.5 27.5-67.5 27.5-27.5 67.5-27.5 38.5 0 67.5 27.5 27.5 28 27.5 67.5t-27.5 67.5q-28 28-67.5 28-41 0-67.5-28-27.5-28-27.5-67.5z" />
<glyph unicode="&#xe007;" glyph-name="link-loop-nodes" horiz-adv-x="925" d="M0 606.5q0 75 53 128t128 53q75.5 0 128.5-53 31-31.5 44-71h153q-7-29-7-57 0-28.5 7-57.5h-153q-12-35.5-37.5-64l113-207q22 3 32.5 3 75.5 0 129-53.5 35-35 47.25-81.75t0-93.75-47.25-82q-53-53-129-53-75.5 0-128.5 53-51.5 52-52.75 125.5t48.25 126.5l-112.5 206q-14-3-35-3-75 0-128 53-53 53.5-53 128.5zM87 606q0-39.5 27.5-67 26.5-28 66.5-28 41 0 67.5 28 27.5 27.5 27.5 67t-27.5 67.5q-26.5 28-67.5 28-40 0-66.5-28-27.5-28-27.5-67.5zM367 99q0-39.5 27.5-67.5 29.5-28 67-28 39.5 0 67.5 28t28 67.5-28 67.5q-26.5 28-67.5 28-39 0-67-28-27.5-28-27.5-67.5zM526.5 334.5l81.5 150.5q-48.5 53.5-46.75 125.75t53.25 123.75q53 53 128.5 53 75 0 128.5-53 35-35 47.25-81.5t0-93.25-47.25-81.75q-53.5-53-128.5-53-21 0-35 3l-81-149.5q-43.5 40-100.5 56zM648 606q0-39.5 27.5-67 26.5-28 67.5-28 39.5 0 67.5 28 27.5 27.5 27.5 67t-27.5 67.5q-28 28-67.5 28-41 0-67.5-28-27.5-28-27.5-67.5z" />
<glyph unicode="&#xe008;" glyph-name="node-size" horiz-adv-x="911" d="M8.5 293q-10 102 24 197.75t106.5 167.75q65 65 149.5 99t170 34 170.25-34 149.75-99 99-149.5 34-170-34-170.25-99-149.75q-63.5-63.5-146.75-97.75t-173.25-34.25q-13 0-39 2l-23.5 2q-40-11-79.5-11-32.5 0-74 9.5-46.5-15.5-97-4t-87 48q-35 35-47.25 82.75t1.25 92.75q-24 83-2 168zM86.5 210.5q52 35.5 116.25 29.5t110.25-52q44.5-44.5 51.75-106.75t-24.75-114.25q82.5 8.5 139.5 67 68 67 68 163t-68 163q-68 68-163 68-95.5 0-163.5-68-62-61-66.5-149.5zM104 431q90 82.5 212.5 82.5 61.5 0 119.75-23.5t103.75-69q59-59 81.25-137.75t3.5-158.25-74.25-141q96 24.5 167 95.5 51.5 51.5 79.5 119t28 140.5-27.75 140.25-79.75 119.25-118.5 79.5-140.5 27.5q-73 0-140.25-27.75t-118.75-79.25q-70.5-70.5-95.5-167.5z" />
<glyph unicode="&#xe009;" glyph-name="node-color" horiz-adv-x="941" d="M3.5 607q-12.5 50.5 17.5 80l186 186v-1q21 19.5 68 1.25t92.5-63.75q36.5-36.5 56-75.5t15.5-65v-217.5q0-18-13-31t-31.5-13q-18 0-31 13t-13 31v116.5l-105.5-105q-20.5-20.5-53-20.5-20 0-43 8.5-44 16.5-84 56.5-49 49-61.5 99.5zM89 630.5q3.5-25 39-60.5 34.5-35 60-39l135.5 135q-25 15-55.5 44-27.5 29.5-44 55.5zM334.5 110q0 61.5 24 117.75t64.5 96.75 96.75 64.5 117.75 24q82.5 0 152.25-40.5t110.5-110.25 40.75-152.25-40.75-152.5-110.5-110.5-152.25-40.5q-61.5 0-117.75 24t-96.75 64.5-64.5 96.75-24 118.25z" />
<glyph unicode="&#xe00a;" glyph-name="node-shape" d="M0 452v141.5q0 33.5 17.25 62t45.75 44.5q13.5-37 57-68.5l44-31.5-1-2.5-19.5-60q-18-63.5 11.5-103.5 26-36 72-36 38 0 82.5 31.5l46.5 33 32-23.5q-5-47-40-79t-83-32h-141q-51.5 0-87.75 36.25t-36.25 87.75zM129 733q5.5 18 48.5 17.5h110.5l33.5 102.5q14.5 42 33.75 42t33.25-42h0.5l33.5-102.5h110q44.5 0 50.25-17.75t-30.25-43.75l-2-2-86.5-62 33-101.5 0.5-0.5v-0.5q14-41.5-1.75-53.25t-51.25 14.25l-1 0.5-1 1.5-86.5 62-88-62.5-1-1.5q-35.5-26-51.5-14.25t-2 53.25l1 1v0.5l33 101.5-86.5 61.5-2 2q-35.5 26-30 44zM341 105.5q0 63 24.5 120.25t66 98.5 99 65.75 120.5 24.5 120.25-24.5 98.5-65.75 65.75-98.5 24.5-120.25-24.5-120.5-65.75-99-98.5-66-120.25-24.5-120.5 24.5-99 66-66 99-24.5 120.5z" />
<glyph unicode="&#xe00b;" glyph-name="node-icon" d="M0 352q0 97.5 38 186.5t102.25 153.25 153.25 102.25 186.5 38 186.5-38 153.25-102.25 102.25-153.25 38-186.5-38-186.5-102.25-153.25-153.25-102.25-186.5-38-186.5 38-153.25 102.25-102.25 153.25-38 186.5zM234.5 198q0-41.5 29-70.5t70-29h205q41 0 70 29t29 70.5v48.5q-15 7-26.5 16l-44.5 32-43.5-31.5q-40.5-29-77.5-29-43 0-67 33.5-27.5 36.5-11 96.5l18 56 1.5 3-44.5 32q-24.5 17.5-40 41-30-10-49-35.75t-19-58.25v-204zM353.75 549.25q-5.25-17.25 27.75-41.25l1.5-0.5 1-1 81-57.5-31.5-95v-0.5l-0.5-0.5q-13-39 1.75-50t48.25 13l1 1.5 82.5 58.5 80.5-58 2-2q33.5-24 48.25-13t1.75 50v1l-31.5 95 83 59q33.5 24 28.25 41.25t-46.75 17.25h-103.5l-31.5 95v0.5q-13 39-31.5 39t-31-39v-0.5l-31.5-95h-103.5q-40.5 0-45.75-17.25z" />
<glyph unicode="&#xe00c;" glyph-name="node-text" d="M0 449l144 383h93l132.5-351 13-33-98.5 1-27.5 77h-136l-27.5-77h-93zM140.5 596h95.5l-47.5 138zM341 182q0 84 41.5 155.25t112.75 112.5 155.75 41.25q63 0 120.25-24.5t98.5-65.75 65.75-98.5 24.5-120.25-24.5-120.5-65.75-99-98.5-66-120.25-24.5q-84.5 0-155.75 41.5t-112.75 113-41.5 155.5z" />
<glyph unicode="&#xe00d;" glyph-name="node-link-text" horiz-adv-x="942" d="M0 65.75q0 76.75 54.5 131.25 54 53.5 131 53.5 44.5 0 83-19.5l328.5 327q-20.5 39.5-20.5 83.5 0 75.5 53.5 128.5t129.5 53q75.5 0 128.75-53t53.25-128.5-53.25-128.75-128.75-53.25q-39.5 0-77 17.5l-330.5-329q27-51 17.75-110.75t-52.75-102.25q-54-54-131.5-54-76 0-131 54-54.5 54-54.5 130.75zM24 727.5l70.5 70.5 366.5-166.5 34.5-14.5-19.5-18.5-56-55.5-79 38-103.5-103.5 38-79.5-70.5-70.5zM88.5 66q0-40.5 28-68.5 29.5-28.5 69-28.5 41 0 69.5 28.5 28 28 28 68.5t-28 68.5q-28.5 28.5-69.5 28.5-39.5 0-69-28.5-28-28-28-68.5zM132 686l68-140 72.5 72zM665 641.5q0-38.5 27.75-66.25t66.75-27.75 66.5 27.75 27.5 66.25q0 39-27.5 66.25t-66.5 27.25-66.75-27.25-27.75-66.25z" />
<glyph unicode="&#xe00e;" glyph-name="node-link-color" horiz-adv-x="941" d="M0.5-7.75q0 76.75 54.5 131.25t130.5 54.5q44 0 83-20l328 328q-20.5 41-20.5 84 0 75.5 53.5 129.25t129.5 53.75q75.5 0 128.75-53.5t53.25-129.5q0-75.5-53.25-129t-128.75-53.5q-40 0-77.5 17.5l-329.5-330q26.5-52 17.25-111.5t-52.25-102.5q-54.5-54.5-131.5-54.5-76 0-130.5 54.5t-54.5 131.25zM3.25 607q-12.25 50.5 17.75 80l186 186 0.5-1q21 19.5 67.75 1.25t92.25-63.75q36.5-36.5 56-75.5t15.5-65v-217.5q0-18-13-31t-31-13q-18.5 0-31.5 13t-13 31v116.5l-105.5-105q-19.5-21-53-21-62 0-126.5 65.5-50 49-62.25 99.5zM88-7.5q0-40.5 29-69.5 28.5-28.5 68.5-28.5 41 0 69.5 28.5 28 29 28 69.5t-28 68.5q-28 28.5-69.5 28.5-40.5 0-68.5-28.5-29-28-29-68.5zM89 630.5q3.5-25 39-60.5t60.5-39l135 135q-26 16.5-55.5 44-27.5 29.5-44 55.5zM664.5 570q0-39 27.75-66.75t66.75-27.75 66.5 27.75 27.5 66.75-27.5 66.5-66.5 27.5-66.75-27.5-27.75-66.5z" />
<glyph unicode="&#xe00f;" glyph-name="node-link-shape" horiz-adv-x="942" d="M6.25 18.25q-12.75 47.75 0 95.5t48.75 83.25q54 54 131.5 54 76.5 0 131-54t54.5-130.75-54.5-131.25q-54-53.5-131-53.5-78 0-131.5 53.5-36 35.5-48.75 83.25zM88.5 66q0-40 28.5-68.5t69.5-28.5q40 0 68.5 28.5 28.5 27.5 28.5 68.5 0 40.5-28.5 68.5-28.5 28.5-68.5 28.5-41 0-69.5-28.5t-28.5-68.5zM330 276.5q0 12.5 8.5 21l55 54.5q8.5 8.5 21 8.5t21-8.5l38-37.5q8.5-8.5 8.5-20.75t-8.5-20.75l-56-55q-8.5-8.5-20.5-8.5t-20.5 8.5l-38 37.5q-8.5 8.5-8.5 21zM479 424.75q0 12.25 8.5 20.75l55.5 55.5q8.5 8.5 20.75 8.5t20.75-8.5l38.5-38q8.5-8.5 8.5-20.75t-8.5-20.75l-55.5-55.5q-9-8.5-21.25-8.5t-20.75 8.5l-38 38q-8.5 8.5-8.5 20.75zM577 641.5q0 75.5 53.5 128.5t129 53q76 0 129.5-53t53.5-128.5q0-75-53.75-128.5t-129.25-53.5-129 53.5-53.5 128.5zM665 641.5q0-38.5 27.75-66.25t66.75-27.75 66.5 27.75 27.5 66.25q0 39-27.5 66.5t-66.5 27.5-66.75-27.5-27.75-66.5z" />
<glyph unicode="&#xe010;" glyph-name="layout-directed" horiz-adv-x="942" d="M0 635.5q0 78.5 55.25 134.25t133.75 55.75 134.25-55.75 55.75-134.25q0-43-20-84l269.5-269q-53.5-33.5-84-85.5l-270 269.5q-40-20-85.5-20-78.5 0-133.75 55.25t-55.25 133.75zM569.5 65.75q0 77.25 54.5 131.75 30.5 30.5 71 44v304.5h-80.5q-16 0-21.5 9.25t3 21.75l145.5 235q6 9 14 9 4 0 7.5-2.25t5-4.25l1.5-2.5 146-235q8.5-12.5 3-21.75t-21.5-9.25h-82v-304q41-13 72.5-44.5 54.5-54.5 54.5-131.75t-54.5-132.25q-55.5-54.5-132-54.5-76 0-131.5 54.5-54.5 55-54.5 132.25zM660 65.75q0-40.25 27.5-67.75 28-29 68-29 41.5 0 68 29 28 28 28 68t-28 68-68 28q-38.5 0-68-28-27.5-28-27.5-68.25z" />
<glyph unicode="&#xe011;" glyph-name="layout-radial" horiz-adv-x="1078" d="M6.25 10.75q-12.75 48.25 0 96.5t48.75 84.25q55 55 132.5 55 71 0 125-48.5l38.5 24.5q-8.5 44.5 5 89t46.5 77.5q30.5 30.5 72 44.5v34.5q-40 13-72 45-35.5 36-48.25 84.25t0 96.25 48.25 84q54.5 54.5 132.5 54.5 77.5 0 132-54.5 36-36 48.75-84t0-96.25-48.75-84.25q-31-32-72-45v-34.5q41.5-14 72-44.5 32.5-32.5 45.75-75.5t6.25-87l45.5-29q54.5 49 126 49 77.5 0 132.5-55 36-36 48.75-84.25t0-96.5-48.75-84.25q-55.5-54.5-132.5-54.5-76.5 0-132 54.5-32.5 33-46 77t-6 88l-44 28.5q-53-50-125.75-50.5t-126.25 48l-39-25.5q8-44.5-5.5-88.5t-46.5-77q-55.5-54.5-132-54.5-77 0-132.5 54.5-36 36-48.75 84.25zM91 59.25q0-40.25 28-68.25 28-28.5 68.5-28.5t68 28.5q28 28 28 68.25t-28 68.25q-28.5 28.5-68 28.5-40 0-68.5-28.5-28-28-28-68.25zM438.5 645.25q0-40.25 28-68.25 29-29 68.5-29 39 0 68 29 28 28 28 68.25t-28 68.25-68 28q-40.5 0-68.5-28t-28-68.25zM794.5 59.25q0-40.25 28-68.25 27.5-28.5 68-28.5t68.5 28.5q28 28 28 68.5 0 40-28 68-28.5 28.5-68.5 28.5-39.5 0-68-28.5-28-28-28-68.25z" />
<glyph unicode="&#xe012;" glyph-name="layout-hierarchical" horiz-adv-x="925" d="M0 63.5q0 74.5 53 126.5 52.5 52.5 126.5 52.5 20.5 0 39-4.5l125 249.5q-7 6-10.5 9.5-52 52-52 126.5t52 126.5q52 53 126.75 53t126.75-53q53-52 53-126.5t-53-126.5q-4.5-4-9.5-8l128.5-251q20.5 4.5 41 4.5 74 0 126.5-52.5 52-52 52-126.5t-52-126.5q-53-53-126.5-53t-126.5 53q-53 52-53 126.5t53 126.5q5.5 5.5 9 8.5l-129 251q-37.5-9.5-79-0.5l-125-250q1-1 3.25-2.75t4-3.25 3.25-3q52-52 52-126.5t-52-126.5q-54-53-127-53-73.5 0-126.5 53-53 52-53 126.5zM87 63.5q0-38 27.5-65.5 27-27 65-27 37.5 0 65.5 27 27 28 27 65.5 0 38.5-27 65.5t-65.5 27q-39 0-65-27-27.5-26.5-27.5-65.5zM653.5 63.5q0-38 27.5-65.5 27-27 65.5-27 37.5 0 65.5 27 27 27 27 65.5t-27 65.5-65.5 27q-39.5 0-65.5-27-27.5-26.5-27.5-65.5z" />
<glyph unicode="&#xe013;" glyph-name="node-link-direction" d="M0 59q0 77.5 54.5 132t132 54.5 132-54.5 54.5-132-54.75-132.25-131.75-54.75-131.75 54.75-54.75 132.25zM91 59q0-39.5 28-67.5t67.5-28 67.25 28 27.75 67.5-27.75 67.5-67.25 28-67.5-28-28-67.5zM315.5 273.5l237 241.5-48.5 47.5q-11.5 11-9 21.25t17.5 13.75l264.5 64.5q10 1.5 15.5-4 2.5-2.5 3.5-6.25t1-6.25l-0.5-3-59.5-265.5q-3-15-12.75-17.75t-21.25 8.25l-66 64.5-237-241.5q-18.5 29-37 47-17.5 17.5-47.5 36zM598.5 709.5q20 54.5 67.75 88.5t107.25 34q77.5 0 132-54.5t54.5-131.5q0-56-30.25-102t-79.25-68l33 147 0.5 5q4 26.5-3.5 51.25t-25.5 42.25q-30.5 29.5-74.5 29.5h-1l-18.5-1.5-4-1.5z" />
<glyph unicode="&#xe014;" glyph-name="node-link-short-path" horiz-adv-x="945" d="M3.5 649q0 76 53.75 129.5t129.75 53.5q59.5 0 107.5-35.25t66-90.25h158.5q-14-60 0.5-118.5h-160q-14.5-40-44.5-69.75t-69.5-42.75v-162q-59 13.5-118 0v162q-54.5 18.5-89.25 66.25t-34.75 107.25zM6.25 28.75q-12.75 48.25 0 96.25t48.75 84q43.5 43.5 103.75 52.25t111.75-18.25l327 325q-18.5 38-18.5 81 0 75.5 53.75 129.25t129.75 53.75q75.5 0 129-53.5t53.5-129.5-53.5-129.75-129-53.75q-44 0-82 19.5l-327-325.5q26.5-51.5 17.25-111.5t-52.25-103q-54.5-54.5-131.75-54.5t-131.75 54.5q-36 35.5-48.75 83.75zM92 649q0-39 27.75-67t67.25-28q39 0 66.5 28t27.5 67-27.5 66.75-66.5 27.75q-39.5 0-67.25-27.75t-27.75-66.75z" />
<glyph unicode="&#xe015;" glyph-name="node-cluster" d="M0 29v123q0 1.5 1.5 1.5h57q1.5 0 1.5-2v-122.5q0-2-1.5-2h-57q-1.5 0-1.5 2zM0 202.5v123.5q0 1 1.5 1h57q1.5 0 1.5-1.5v-123q0-1.5-1.5-1.5h-57q-1.5 0-1.5 1.5zM0 375.5v123.5q0 2 1.5 2h57q1.5 0 1.5-2v-123q0-1.5-1.5-1.5h-57q-1.5 0-1.5 1zM0 552v123.5q0 2 1.5 2h57q1.5 0 1.5-2v-122.5q0-2.5-1.5-2.5h-57q-1.5 0-1.5 1.5zM9-42.5l0.5 0.5q0.5 0.5 1 0.5l52 23q1.5 0 2-1.5 6-14 19-22.25t28-8.25v-60q-33 0-61 18t-41 48zM9 747v1l0.5 1q13 30 41 47.75t61 17.75v-60q-15 0-28-8.25t-19-22.25q-0.5-1-2-1l-52 23zM156.5-52q0 1.5 2 1.5h122.5q2.5 0 2.5-1.5v-57q0-1.5-2-1.5h-123q-2 0-2 1.5v57zM156.5 756v57.5q0 1 2 1h122.5q2.5 0 2.5-1v-57.5q0-1.5-2-1.5h-123q-2 0-2 1.5zM177.5 212q0 56.5 40 96.75t96 40.25q56.5 0 96.75-40.25t40.25-96.75q0-56-40.25-96t-96.75-40-96.25 39.75-39.75 96.25zM267.5 212q0-18.5 13.75-32.25t32.25-13.75q19 0 32.75 13.5t13.75 32.5-13.75 33-32.75 14q-18.5 0-32.25-14t-13.75-33zM333-52q0 1.5 2 1.5h122.5q2 0 2-1.5v-57q0-1.5-2-1.5h-122.5q-2 0-2 1.5v57zM333 756v57.5q0 1 2 1h122.5q2 0 2-1v-57.5q0-1.5-2-1.5h-122.5q-2 0-2 1.5zM341.5 492q0 56.5 40.25 96.75t96.75 40.25 96.5-40.25 40-96.75-40-96.5-96.5-40-96.75 40-40.25 96.5zM432 492q0-19 13.75-32.5t32.75-13.5 32.5 13.5 13.5 32.5-13.5 32.75-32.5 13.75-32.75-13.75-13.75-32.75zM507-52q0 1.5 1.5 1.5h123q1.5 0 1.5-1.5v-57q0-1.5-1.5-1.5h-123.5q-1 0-1 1.5v57zM507 756v57.5q0 1 1.5 1h123q1.5 0 1.5-1v-57.5q0-1.5-1.5-1.5h-123.5q-1 0-1 1.5zM509.5 212q0 56.5 40.25 96.75t96.75 40.25q56 0 96-40.25t40-96.75-39.75-96.25-96.25-39.75-96.75 40-40.25 96zM600 212q0-19 13.75-32.5t32.75-13.5q18.5 0 32.25 13.75t13.75 32.25q0 19-13.75 33t-32.25 14q-19 0-32.75-14t-13.75-33zM680-52q0 1.5 2.5 1.5h122.5q2 0 2-1.5v-57q0-1.5-2-1.5h-123.5q-1.5 0-1.5 1.5v57zM680 756v57.5q0 1 2.5 1h122.5q2 0 2-1v-57.5q0-1.5-2-1.5h-123.5q-1.5 0-1.5 1.5zM848.5-50.5q15 0 28 8.25t19 22.25q0.5 1.5 2 1.5l52-23 1.5-1v-1.5l-0.5-0.5q-13-30-41-48t-61-18v60zM848.5 754.5v60q33 0 61-17.75t41-47.75l0.5-2q0-0.5-0.5-0.5t-1-0.5l-52-23q-1.5 0-2 1-6 14-19 22.25t-28 8.25zM900 29v122.5q0 2 1.5 2h57q1.5 0 1.5-1.5v-123q0-2-1.5-2h-57q-1.5 0-1.5 2zM900 205.5v122.5q0 2 1.5 2h57q1.5 0 1.5-2v-122.5q0-2-1.5-2h-57q-1.5 0-1.5 2zM900 379v123q0 1.5 1.5 1.5h57q1.5 0 1.5-1.5v-123.5q0-1-1.5-1h-57q-1.5 0-1.5 1.5zM900 553v122.5q0 2 1.5 2h57q1.5 0 1.5-2v-123.5q0-1.5-1.5-1.5h-57q-1.5 0-1.5 2.5z" />
<glyph unicode="&#xe016;" glyph-name="display-graph" horiz-adv-x="1103" d="M0 70.5v683q0 32.5 26.25 55.5t63.25 23h923q37 0 63.75-23t26.75-55.5v-683q0-32.5-26.75-55.75t-63.75-23.25h-248.5v-59.5q0-24.5-17.5-42.25t-42.5-17.75h-307q-25 0-42.5 17.75t-17.5 42.25v59.5h-247.5q-37 0-63.25 23.25t-26.25 55.75zM120 111.5h863v166h-203q-9.5-27-33.25-44.25t-53.25-17.25q-38 0-64.25 26.5t-26.25 64.5q0 32.5 20.5 57l-53 85.5q-16.5-2.5-20-2.5t-19.5 2.5l-52-84.5q21-26 21-58 0-38-26.75-64.5t-64.75-26.5q-29.5 0-52.75 17.25t-32.75 44.25h-203v-166zM120 337.5h203q9.5 27 32.75 44t52.75 17q8.5 0 19.5-2.5l52 85q-20.5 26-20.5 57.5 0 38 26.5 64.75t64.5 26.75 64.5-26.75 26.5-64.75q0-31-20.5-57l53.5-85.5q11 2.5 19 2.5 29.5 0 53.25-17t33.25-44h203v374.5h-863v-374.5z" />
<glyph unicode="&#xe017;" glyph-name="node-link-weight" d="M0 599.5q0 49 35.25 84.25t84.25 35.25h721q49 0 84.25-35.25t35.25-84.25q0-50-35-85t-84.5-35h-721q-49.5 0-84.5 35t-35 85zM1 30q0 18.5 13.25 31.75t32.25 13.25h868.5q18.5 0 31.75-13.25t13.25-31.75-13.25-31.5-31.75-13h-868.5q-19 0-32.25 13t-13.25 31.5zM2.5 278.5q0 31 21.75 53t52.75 22h804q31 0 53-22t22-53-22-53-53-22h-804q-31 0-52.75 22t-21.75 53z" />
<glyph unicode="&#xe018;" glyph-name="more-node-links" d="M2-108.5l0.5 2.5 62.5 268.5q3 15 13.5 17.75t21.5-8.75l57.5-57.5 105.5 105q18-28.5 36.5-47.5 21-20.5 48-37l-105-105 57-57.5q11.5-11.5 8.75-21.5t-17.75-13l-269-63.5q-9.5-1.5-15 4-3 3-4 7t-0.5 6.5zM289.5 350q0 78 55.5 133.25t133.5 55.25q78.5 0 133.75-55.25t55.25-133.25q0-78.5-55.25-133.75t-133.75-55.25q-78 0-133.5 55.25t-55.5 133.75zM379.5 350q0-41 29-70.25t70-29.25 70 29 29 70.5-28.75 70.25-70.25 28.75q-41 0-70-29t-29-70zM611.5 568l107 107-57.5 57q-11.5 11.5-8.5 21.75t18 13.25l268.5 63.5q10 1.5 15.5-4 2.5-2.5 3.5-6.5t1-6.5l-0.5-3-63-268.5q-3-15-13.5-17.75t-21.5 8.75l-57.5 57.5-107-107q-18.5 29-37 47.5-20 20-47.5 37z" />
<glyph unicode="&#xf004;" glyph-name="chevron-down" horiz-adv-x="837" d="M0 540q0 25.5 18.5 44t44.5 18.5 44-18.5l312-311 311.5 311q18.5 18.5 44.5 18.5t44-18.5q18.5-18.5 18.5-44.25t-18.5-44.25l-400-400-400.5 400q-18.5 19.5-18.5 44.5z" />
<glyph unicode="&#xf005;" glyph-name="chevron-up" horiz-adv-x="837" d="M0 164.75q0 26.25 18.5 44.25l400 400 400-400q18-18 18-44 0-26.5-18-45-18.5-18-44.5-18t-44.5 18l-311 312-311.5-312q-18.5-18-44.5-18t-44 18q-18.5 18.5-18.5 44.75z" />
<glyph unicode="&#xf006;" glyph-name="chevron-right" horiz-adv-x="507" d="M0-6.75q0 25.75 18.5 44.25l312 311.5-312 312q-18.5 18.5-18.5 44.25t18.5 44.25 44.5 18.5 44.5-18.5l400-400.5-400-400q-19.5-18.5-44.5-18.5t-44.5 18.5q-18.5 18.5-18.5 44.25z" />
<glyph unicode="&#xf007;" glyph-name="chevron-left" horiz-adv-x="507" d="M0 355l400.5 400.5q18.5 18.5 44 18.5 25 0 44.5-18.5 18-18.5 18-44.5t-18-44.5l-312-311.5 312-312q18-18 18-44t-18-44.5q-18.5-18-44.5-18t-44 18z" />
<glyph unicode="&#xf008;" glyph-name="reorder" horiz-adv-x="1099" d="M69.5 57q0-30.5 22-52.25t52-21.75h812.5q30.5 0 52 21.75t21.5 52.25-21.5 52-52 21.5h-812.5q-30 0-52-21.5t-22-52zM69.5 352q0-30.5 22-52t52-21.5h812.5q30.5 0 52 21.5t21.5 52-21.5 52.25-52 21.75h-812.5q-30 0-52-21.75t-22-52.25zM69.5 647.5q0-30.5 22-52t52-21.5h812.5q30.5 0 52 21.5t21.5 52-21.5 52.25-52 21.75h-812.5q-30 0-52-21.75t-22-52.25z" />
<glyph unicode="&#xf009;" glyph-name="list" d="M0 57q0-30.5 21.5-52.25t52-21.75h33q30.5 0 52 21.75t21.5 52.25-21.5 52-52 21.5h-33q-30.5 0-52-21.5t-21.5-52zM0 352q0-30.5 21.5-52t52-21.5h33q30.5 0 52 21.5t21.5 52-21.5 52.25-52 21.75h-33q-30.5 0-52-21.75t-21.5-52.25zM0 647.5q0-30.5 21.5-52t52-21.5h33q30.5 0 52 21.5t21.5 52-21.5 52.25-52 21.75h-33q-30.5 0-52-21.75t-21.5-52.25zM240 57q0-30.5 21.5-52.25t52-21.75h573q30.5 0 52 21.75t21.5 52.25-21.5 52-52 21.5h-573q-30.5 0-52-21.5t-21.5-52zM240 352q0-30.5 21.5-52t52-21.5h573q30.5 0 52 21.5t21.5 52-21.5 52.25-52 21.75h-573q-30.5 0-52-21.75t-21.5-52.25zM240 647.5q0-30.5 21.5-52t52-21.5h573q30.5 0 52 21.5t21.5 52-21.5 52.25-52 21.75h-573q-30.5 0-52-21.75t-21.5-52.25z" />
<glyph unicode="&#xf00a;" glyph-name="reorder-square" d="M0-73.5v293q0 22 15.5 37.75t37.5 15.75h292.5q22 0 37.75-15.75t15.75-37.75v-293q0-22-15.75-37.5t-37.75-15.5h-292.5q-22 0-37.5 15.5t-15.5 37.5zM0 485v293q0 22 15.5 37.5t37.5 15.5h292.5q22 0 37.75-15.5t15.75-37.5v-293q0-22-15.75-37.75t-37.75-15.75h-292.5q-22 0-37.5 15.75t-15.5 37.75zM560.5-73.5v293q0 22 15.75 37.75t37.25 15.75h293.5q21.5 0 37.25-15.75t15.75-37.75v-293q0-22-15.5-37.5t-37.5-15.5h-293.5q-21.5 0-37.25 15.5t-15.75 37.5zM560.5 485v293q0 21.5 15.75 37.25t37.25 15.75h293.5q22 0 37.5-15.75t15.5-37.25v-293q0-22-15.75-37.75t-37.25-15.75h-293.5q-21.5 0-37.25 15.75t-15.75 37.75z" />
<glyph unicode="&#xf00b;" glyph-name="reorder-square-line" d="M0-73.5v293q0 22 15.75 37.75t37.25 15.75h293.5q21.5 0 37.25-15.75t15.75-37.75v-293q0-22-15.75-37.5t-37.25-15.5h-293.5q-22 0-37.5 15.5t-15.5 37.5zM0 485v293q0 21.5 15.5 37.25t37.5 15.75h293.5q21.5 0 37.25-15.75t15.75-37.25v-293q0-22-15.75-37.75t-37.25-15.75h-293.5q-21.5 0-37.25 15.75t-15.75 37.75zM90.5-36.5h218.5v219h-218.5v-219zM90.5 522h218.5v219h-218.5v-219zM560.5-73.5v293q0 22 15.75 37.75t37.25 15.75h293.5q21.5 0 37.25-15.75t15.75-37.75v-293q0-22-15.5-37.5t-37.5-15.5h-293.5q-21.5 0-37.25 15.5t-15.75 37.5zM560.5 485v293q0 21.5 15.75 37.25t37.25 15.75h293.5q22 0 37.5-15.75t15.5-37.25v-293q0-22-15.75-37.75t-37.25-15.75h-293.5q-21.5 0-37.25 15.75t-15.75 37.75zM651-36.5h219.5v219h-219.5v-219zM651 522h219.5v219h-219.5v-219z" />
<glyph unicode="&#xf00c;" glyph-name="coverflow" horiz-adv-x="1110" d="M0 191.5q0-8 8.5-13.75t21-5.75 21.25 5.75 8.75 13.75v321.5q0 8-8.75 13.5t-21.25 5.5-21-5.5-8.5-13.5v-321.5zM127 131.5q0-8 8.75-13.75t21.25-5.75 21.25 5.75 8.75 13.75v441.5q0 8-8.75 13.5t-21.25 5.5-21.25-5.5-8.75-13.5v-441.5zM271 91.5q0-16 11.75-27.75t27.75-11.75h489q16 0 27.5 11.75t11.5 27.75v520.5q0 17-11.5 28.5t-27.5 11.5h-489q-16.5 0-28-11.75t-11.5-28.25v-520.5zM922.5 131.5v441.5q0 8 8.75 13.5t20.75 5.5q12.5 0 21.5-5.5t9-13.5v-441.5q0-8-9-13.75t-21.5-5.75q-12 0-20.75 5.75t-8.75 13.75zM1049.5 191.5v321.5q0 8 8.75 13.5t21.25 5.5 21.25-5.5 8.75-13.5v-321.5q0-8-8.75-13.75t-21.25-5.75-21.25 5.75-8.75 13.75z" />
<glyph unicode="&#xf00d;" glyph-name="coverflow-line" horiz-adv-x="1110" d="M0 193v320q0 8 9 13.25t21.5 5.25 21-5.25 8.5-13.25v-320q0-8-8.5-13.75t-21-5.75-21.5 5.75-9 13.75zM127.5 133v439q0 8 8.75 13.75t21.25 5.75q12 0 21-5.75t9-13.75v-439q0-8-9-13.5t-21-5.5q-12.5 0-21.25 5.5t-8.75 13.5zM271.5 93.5v518.5q0 16 11.5 27.5t27.5 11.5h489q16 0 27.75-11.5t11.75-27.5v-518.5q0-16-11.75-27.75t-27.75-11.75h-489q-16 0-27.5 11.75t-11.5 27.75zM361 143.5h388v418.5h-388v-418.5zM923 133v439q0 8 8.5 13.75t21 5.75 21.5-5.75 9-13.75v-439q0-8-9-13.5t-21.5-5.5-21 5.5-8.5 13.5zM1050.5 193v320q0 8 8.5 13.25t21 5.25 21-5.25 8.5-13.25v-320q0-8-8.5-13.75t-21-5.75-21 5.75-8.5 13.75z" />
<glyph unicode="&#xf00e;" glyph-name="pause" horiz-adv-x="753" d="M0-1.5q0-27.5 19-47t46.5-19.5h130q27.5 0 46.5 19.5t19 47v708q0 27.5-19 46.5t-46.5 19h-130q-27.5 0-46.5-19t-19-46.5v-708zM491.5-1.5q0-27.5 19.25-47t46.25-19.5h130.5q27 0 46.25 19.5t19.25 47v708q0 27.5-19.25 46.5t-46.25 19h-130.5q-27 0-46.25-19t-19.25-46.5v-708z" />
<glyph unicode="&#xf00f;" glyph-name="play" horiz-adv-x="675" d="M0 5v694q0 39.5 22.75 52.75t53.75-7.75l578-357.5q20.5-14.5 20.5-34.5 0-9-5-17.75t-10-12.75l-5.5-4-578-358q-31-20.5-53.75-7.25t-22.75 52.75z" />
<glyph unicode="&#xf010;" glyph-name="step-forward" horiz-adv-x="898" d="M0 19.5v695q0 42 21.5 47.25t65.5-18.25l550-347.5v318.5q0 21.5 18.25 40t39.75 18.5h116q40.5 0 63.5-17.5t23-41v-695q0-23.5-23-41t-63.5-17.5h-116q-21.5 0-39.75 18.5t-18.25 40v289.5l-550-348q-44-20-65.5-3.75t-21.5 62.25z" />
<glyph unicode="&#xf011;" glyph-name="step-backward" horiz-adv-x="841" d="M0 27v650q0 25 17.75 42.75t42.75 17.75h119.5q25 0 42.5-17.75t17.5-42.75v-278.5l528.5 327.5q30 19.5 51.25 7t21.25-50v-661.5q0-38-21.25-50.5t-51.25 7.5l-528.5 327v-278.5q0-25-17.75-42.75t-42.25-17.75h-119.5q-24.5 0-42.5 18t-18 42.5z" />
<glyph unicode="&#xf012;" glyph-name="fast-forward" horiz-adv-x="1507" d="M0 4v695.5q0 39.5 22.5 53t54.5-7.5l546-338.5v293q0 39.5 22.5 53t54.5-7.5l555-344v292.5q0 26.5 18.5 45.25t45 18.75h125.5q26.5 0 45-18.75t18.5-45.25v-683q0-26.5-18.5-45t-45-18.5h-125.5q-26.5 0-45 18.5t-18.5 45v292.5l-555-344q-32-20.5-54.5-7.5t-22.5 52.5v293.5l-546-338.5q-32-20.5-54.5-7.5t-22.5 52.5z" />
<glyph unicode="&#xf013;" glyph-name="fast-backward" horiz-adv-x="1507" d="M0 10.5v683q0 26.5 18.5 45.25t45 18.75h125.5q26.5 0 45-18.75t18.5-45.25v-292.5l555.5 344q31 21 53.75 7.5t22.75-53v-293l546.5 338.5q31 21 53.75 7.5t22.75-53v-695.5q0-39.5-22.75-52.5t-53.75 7.5l-546.5 338.5v-293.5q0-39.5-22.75-52.5t-53.75 7.5l-555.5 344v-292.5q0-26.5-18.5-45.25t-45-18.75h-125.5q-26.5 0-45 18.75t-18.5 45.25z" />
<glyph unicode="&#xf014;" glyph-name="cloud-upload" horiz-adv-x="1234" d="M0.25 251q-2.25 46 9.75 88.25t35.5 79.5 59 66.25 79 46q79 30 159.5 13 37.5 82.5 114 132.75t170 50.25q63.5 0 121.25-24.75t99.5-66.5 66.5-99.5 24.75-121.25q0-9.5-2-27.5 1.5 0 3.75 1t3.25 1.5q82 32 162.75-4.25t112.75-118.25q20-57 12-110.75t-44-99-90.5-66.25q-36-13-74-14h-305.5v172h69.5q19 0 25.25 11t-3.75 26.5l-175 282q-7 10-16.5 10-4.5 0-8.75-2.5t-6.25-5l-2-2.5-175-282q-10-15.5-3.25-26.5t25.75-11h68.5v-172l-229.5 0.5q-87.5 0-161.25 49.75t-105.75 133.75q-17 43.5-19.25 89.5z" />
<glyph unicode="&#xf015;" glyph-name="cloud-download" horiz-adv-x="1235" d="M-0.25 274q2.75 56 24.25 105.5t63.75 90 97.25 62.5q66 28 158 15 40.5 81 116 130.5t168.5 49.5q84.5 0 155.5-42.25t111.5-113 40.5-152.25v-29.5h7.5q82.5 32.5 162.75-3.75t114.75-116.25q32.5-82.5-3.75-163t-116.25-115l-17-4.25t-16.5-4.25-13.75-3-14.75-2.25-13-0.75h-742q-86.5 0-158.25 49.75t-104.25 137.75q-23.5 53-20.75 109zM458.75 380.25q-6.25-9.75 4.25-20.75l134.5-224.5q7.5-8 15-8 3.5 0 7.25 2t5.75 4l2 2 143 224.5q6 12-0.25 21.25t-22.75 9.25h-52.5v104.5h-157.5v-104.5h-60q-12.5 0-18.75-9.75z" />
<glyph unicode="&#xf016;" glyph-name="data-science" d="M0 352q0 98 38 186.75t102.25 153 153 102.25 186.75 38q97.5 0 186.5-38t153.25-102.25 102.25-153 38-186.75q0-97.5-38-186.5t-102.25-153.25-153.25-102.25-186.5-38q-98 0-186.75 38t-153 102.25-102.25 153.25-38 186.5zM90.5 352q0-50 13.5-101.5 36 97.5 105.5 168.5-1 2-2 6.25t-1 4.75h-5.5q-50 0-105-14-5.5-33-5.5-64zM111 477.5q47.5 9 90 9 2 0 5.5-0.25t5.5-0.25q10.5 21 30 33.5t43.5 12.5q28.5 0 52-18.5 92 47 198.5 49 5 11.5 11 19-75 98.5-192.5 139.5-86-29.5-150.25-93.5t-93.25-150zM138.5 165.5q43-79 117.25-131.75t165.25-66.75q87 50.5 140.5 131.5-20 23-20 53 0 35 26 59.5-35.5 65-91 114.25t-124.5 76.25q-25-34-66.5-34-19.5 0-38 10-86.5-90.5-109-212zM367 464q0.5-1.5 0.75-4.5t0.25-4.5q81-30.5 146.25-87.75t106.25-133.75q12 49.5 12 95.5 0 56.5-19 120h-1.5q-27.5 0-48.75 16t-29.75 41q-88.5-3.5-166.5-42zM447.5 741q85.5-49 146-130 9 2.5 18.5 2.5 31.5 0 54.75-21.5t26.25-52.5q93-30.5 165.5-93.5-32.5 128.5-137.75 212.5t-240.75 84q-5 0-10.25-0.25t-12-0.75-10.25-0.5zM515-36q49.5 4 102 23.5 0 3 1 11.75t1 13.75q0 23-4.5 57-1 0.5-3.5 0.5-39-59.5-96-106.5zM666.5 469.5q22-72.5 22-140.5 0-57-14-113 32-24.5 32-64.5 0-42.5-37-68.5 5.5-35.5 5.5-68 89 51.5 142.25 141.25t53.25 195.75v1.5q-77.5 94-190.5 131.5-7-9.5-13.5-15.5z" />
<glyph unicode="&#xf017;" glyph-name="data-science-black" d="M0 352q0 98 38 186.75t102.25 153 153 102.25 186.75 38q86.5 0 165.75-29.25t142.75-83.25q42.5-32 73-77 98.5-129 98.5-290.5 0-97.5-38-186.5t-102.25-153.25-153.25-102.25-186.5-38q-98 0-186.75 38t-153 102.25-102.25 153.25-38 186.5zM96 416q52 14 105 14h5.5q0-0.5 1-4.75t2-6.25q-71-72.5-105.5-168 11.5-44 34.5-86 22.5 122 109 212.5 17.5-10 38-10 41.5 0 66.5 34 69-27 124.5-76.25t91-114.25q-26-24.5-26-59.5 0-29.5 20-53.5-55-81.5-140-131 29.5-4.5 58.5-4.5 17.5 0 35.5 1.5 57 47.5 95.5 106.5h1.5l1-0.5q5-31.5 5-57l-1.5-25.5q32 12 58 27.5 0 32.5-5.5 68 37 26 37 68.5 0 40-32 64.5 14 56 14 113 0 68-22 140.5 7.5 6.5 13 15.5 113.5-37.5 190-130.5 0 45.5-11 92-74 63.5-165.5 93-3 31-26.25 52.5t-54.75 21.5q-9.5 0-18.5-2.5-61 81.5-146.5 130-45-4.5-91.5-19.5 116.5-42 191.5-140-6-7.5-11-19-106.5-2-198.5-49-23.5 18.5-52 18.5-24 0-43.5-12.5t-30-33.5q-2 0-5.5 0.25t-5.5 0.25q-42.5 0-90-9-9.5-28.5-15-61.5zM367 464q81.5 40 166.5 42 8.5-25 29.75-41t48.75-16h1.5q18.5-62 18.5-120 0-49-12-95.5-40 76-105.5 133.25t-146.5 88.25q0 1.5-0.25 4.5t-0.75 4.5z" />
<glyph unicode="&#xf018;" glyph-name="globe" d="M0 352q0 98 38 186.75t102.25 153 153.25 102.25 186.5 38 186.5-38 153.25-102.25 102.25-153 38-186.75q0-97.5-38-186.5t-102.25-153.25-153.25-102.25-186.5-38-186.5 38-153.25 102.25-102.25 153.25-38 186.5zM90.5 352q0-78 29.75-149t80.5-122.75 120.5-83.5 147.25-34.25q-7.5 8.5-11.5 34.5-1 6.5-2.5 25.25t-3.5 28.25q-1 6.5-18 55.5-5 15.5-11 19.75t-23 5.25q-9 0.5-25.5 0.75t-28 1-26.5 2.25-25.5 5.75-21 11-17 18.25-9 27q-11 63.5 39 105.5 25.5 21 53.5 28.25t65.5 6.25q25-0.5 43-14 22.5-18.5 45.5-19.5 5-0.5 22.5-2t28.75-2.25 26 1.25 24.25 7v6.5q0 2 1 7.75t1.25 9.5-1 7.75-5.25 6q-4.5 2-21 0.75t-20 4.25q-9 8.5 2.25 17t30.75 16 22 10q14.5 15-6 19-20 4-39.5-4.5-4-2-6.5-4-9-8.5-18-29.5-2.5-6.5-9.25-16.75t-9.25-15.25q-1.5 2.5-5.5 6.25t-5.5 5.75q-3 3.5-11.5 20.5-1 2-2.5 6.25t-2.5 6.75-3 6.25-4 5-5.5 2.75-7-0.5q-1-10.5 7-23.5t8-20q0.5-13.5-6-12.25t-14.5 13.25q-2 3-5.5 9.25t-5.5 9-6 6.25-9.25 4.25-12.25-0.25q-13-2-20.5-7.5-2-1.5-7.5-8t-10-8q-3-17.5-27-16.5-1 0-6.25 0.25t-8.5 0.5-7.75 1-7.5 2.25-4.5 4q-2.5 5 2.25 21.75t8.75 21.75 10.75 6.75 19.5 1.25 13.75-0.5q2 9-5 16.75t-8 10.25q-1 5.5-1 8.25t3.5 4 6.5 1.25h7.5t6.5 0.5q18.5 3.5 30.5 15.5 0.5 0.5 3.75 3.25t4.75 3.75l5.25 3.5t5.5 2.5 5.75 1.25 6-0.75q2-0.5 6-4.75t6.5-4.75q3.5-1 16 3.5 13 4.5 19.5 10.5t13.5 18q13 21 4 35.5-6 8.5-15.5 6t-14.5-12.5q-1.5-3.5-3-11t-3.75-12.75-6.25-8.25q-5-3.5-16-4.25t-17 2.25q-4.5 2-6.5 6.25t-2 7.5 0.75 10.25 0.75 9q0 4 1 7.5t2.25 6 3.75 5.5 4.25 4.75 5 4.75 5.25 5q8 8 16.75 12.25t19.75 4.25 17.5-0.5 20.75-4 18.75-4.5q17.5-3.5 37 18 3 4 8.75 8.75t8 8.75 2.25 11.5q0 7-1.25 24.25t-1.75 29 1.75 26.5 7.75 24.25q-64 23.5-132 23.5-48 0-96.5-12.5l-0.5-2.5q0-19 2-21.5 4.5-5.5 16.5-7.5t23-2.5 18.5-6.75 4.5-18.75q-3.5-14-19.75-31.25t-32.75-29.25q-20.5-15-50-19-0.5 0-5.75-0.75t-7.5-0.75-8-0.5-9 0-8.25 1-7.75 1.75-5.5 3.25-4 5.25-1.25 7.25q0.5 9 8.75 16.25t17.25 10.5 22 7.25 17 5.5q1 12.5-3.5 16.75t-12.25 2-17-5.75-17.75-6-15 1q-2.5 8 5.75 13.5t9.25 7.5q4.5 10.5-9 19-29.5-16-53.5-36 10.5-1.5 17.5-6.5t6.5-14.5q0-5-2.25-9t-4.25-6-6.25-5.75-6.25-5.25q-15-14-22-25.5-3-4.5-7-21.75t-11.5-21.75q-11.5-6.5-15.75-0.5t-5.25 19v8.5t-1.25 2.75-3.75 2.75q-6.5 2-18.5-1-69.5-99.5-69.5-222zM595.5 278q-1.5-31 20.5-54.5 27.5-28.5 53.5-33 10.5-2 29.25 1.5t25.25 3.5q0.5-17-19.5-54-22-38-33.5-50-2.5-2.5-7.25-6.75t-7-6.5-5.5-6.25-4-7-0.75-7.5 2-9.5q1-2.5 4.25-9t3.25-8-1-9.5q-1.5-4-4-6.25t-7-4.25-6.5-3.5q-4.5-3-11.75-8.5t-13-9.75-12.25-7.75q119 39 194.5 140.75t75.5 229.75q0 13-2 37-4-5.5-4.5-12-2.5-17.5-2.5-21.5 0-3.5 0.75-14.25t0.25-18.75-4-12q-3-3.5-6.5-4t-7.5 2-7.25 5.5-7.5 7-6.75 5.5q-9 6-14.5 9.25t-13.25 6-15.25 2.25-16-4.5q-18-9-40-9-3.5 0-11.25 0.5t-12.75 0.5-11.25-1.25-10.25-3.75q1-11 7.75-20.5t17.25-10q5 0 7.5 1.75t4.75 4.75 5.25 4.5q7.5 5 23.5 4 1.5-26 0-31.5t-6.5-12.75-6-12.75q-0.5-2.5-1.75-9.75t-2.25-10.5-3.75-8-6.75-8.25q-8-6.5-17.5-9.25t-17.5 2.25q-3 2.5-8.25 9.75t-9.25 10.75q-3 2.5-5.5 4.5t-5 5-3.75 4.75-4 6-4.25 6.25q-6 8.5-21.25 18.5t-19.75 15q-4-2.5-4.75-4.25t-1.25-8.75z" />
<glyph unicode="&#xf019;" glyph-name="globe-black" d="M0 352q0 98 38 186.75t102.25 153 153.25 102.25 186.5 38 186.5-38 153.25-102.25 102.25-153 38-186.75q0-97.5-38-186.5t-102.25-153.25-153.25-102.25-186.5-38-186.5 38-153.25 102.25-102.25 153.25-38 186.5zM160 574q14 2.5 18 0.5 2.5-1.5 3.75-2.5t1.5-2.5 0.25-3.5v-5q1-29.5 21-18.5 7.5 4.5 11.25 22t6.25 21.5q5.5 9 23 25.5 2 1.5 6.25 5.25t6.25 5.75 4.25 6 2.25 9q0.5 9.5-6.75 14.5t-17.75 6.5q-45-35.5-79.5-84.5zM245.5 196q3-18 12.25-30.5t20-19 28.25-10 30-4 33-1 30-1q17-1 23-5.25t11-19.75q2-5.5 6.5-17.25t7.25-20.5 4.25-17.25q2-10 3.5-29t2.5-25.5q4-25 11.5-33.5 2 0 5.75-0.25t5.75-0.25q60.5 0 123 20 7.5 4.5 19.5 14t15 11.5q2 1 6.5 3t7 4.25 4 6.75q2 3 1.25 7t-1.25 6-2.75 6-3.25 7q-2 5-2.25 9.5t0.75 7.75 4 7 5.5 6 7 6.5 7 6.75q13.5 13.5 33.5 50 20.5 37 20 54-7 0.5-25.75-3.25t-29.25-1.75q-25.5 4.5-53 33-22.5 23.5-21 55 0.5 6.5 1.25 8.5t4.75 4.5q5-5.5 20.5-15.75t21-18.25q2-2.5 5.25-7.25t4.75-7 4.75-5.75 7.25-6.5 9.25-10.5 8.75-10q8-5 17.75-2.25t17.75 9.25q4 3.5 6.75 8.5t3.5 8.5 2 10.25 1.75 9.25q1.5 5.5 6.25 13t6.25 12.5 0 32q-16.5 0-24-4-2-1-6.5-6.5t-10.5-5q-11 0.5-17.5 10t-7.5 20.5q4 3 10.25 4t10.5 1 13-0.5 11.25-0.5q18.5 0 40 9 8.5 4 16 4.75t15.25-2.25 13.25-6 14.5-9.5q2.5-2 6.75-5.75t7.5-6.75 7.25-5.5 7.5-2 6.5 4q3.5 4 4 12.25t-0.25 19-0.75 13.75l2.5 21q0.5 3 4.5 12-11 113.5-81 203t-175 127.5q-7.5-12-9.25-29.5t0.25-43.25 2-31.25q0-7.5-2.25-11.75t-8-8.75-8.75-8.5q-19-21.5-37-18-5 1-19 4.5t-20.5 4-17.5 0.5-19.5-4.25-17-12.25q-1.5-1.5-6-5.75t-6.25-6.25-4.5-5.75-4-7.5-1.25-8.25q0-1.5-0.75-9t-0.5-10.25 2.25-7.25 6.5-7q6-3 16.5-2.25t16 4.25q4 3 6.25 8.5t4 13 3.25 11q5 10 14.5 12.5t15.5-6q9-14-4-36-7.5-12-14-18t-19-10q-1-0.5-4.25-2t-6-2-5.75 0q-2.5 1-6.5 5.25t-6 4.75q-12 3.5-31-14-14-13-30.5-15-2-0.5-6.5-0.5h-7.5t-6.5-1.25-3.5-4 1-8.25q1-3 7.75-10.5t5.25-16.5q-3 0-11 0.25t-13 0-11-2-9-5.75q-4-6-8.75-22.5t-2.25-21q4.5-8 34.5-8 24-2 27 16 4.5 2 9.75 8t7.75 8q7.5 6 20.5 7.5 7 1 12.25 0.25t9.25-4.25 6-6 5.5-8.75 5.5-9.25q10-15.5 17-13.5 4 1.5 3.5 12.5 0 7-8 19.75t-7 22.75q5.5 0 8.25 0.5t6-4 4.5-6.75 3.5-7.75 3.25-7.5q5.5-14.5 10.5-21 0.5-0.5 5-4.75t6-7.25q1.5 2 8.5 13.5t10 18.5q8.5 20.5 18.5 29.5 10.5 9.5 36 9.5 22 0 21.5-10-0.5-4-6-9.5-3-3-22-10.5t-30.5-16-2.5-17q5.5-5 20.25-4t20.75-1.5q4-2 5.5-5.75t1.25-7-1.5-9.5-1.25-8.25v-6q-12-7-28.75-8.25t-44.25 1.25-28.5 2.5q-21.5 1-45.5 19.5-11 8.5-19.5 11t-24 3.5q-73 2.5-118.5-35-51-42.5-40-106zM287 654.5q6.5-3.5 15.25-1t18 6 17 5.75 12.25-2 3.5-16.75q-4-1.5-17-5.5t-22-7.5-17.25-10.75-8.75-16.25q0-4 1.25-7t4-5 5.75-3.5 7.75-1.75 8-0.75 9 0 8 0.5 7.5 0.75 5.75 0.75q29.5 4 50 18.5 46 34.5 52.5 61 3 12.5-4.5 18.75t-18.5 6.75-23 2.5-16.5 7.5q-2 2.5-2 21.5 0 2 0.5 2.5-66.5-22-90-35 13-9.5 9-19-1-2-9.5-7.5t-6-13.5z" />
<glyph unicode="&#xf01a;" glyph-name="math-ico" d="M0 477.5q0 32 24.5 54.75t58.5 22.75h220l168-255 91.5 532h313.5q35 0 59.5-23t24.5-55.5-24.5-55.5-59.5-23h-174.5l-139-803-351 528h-128.5q-34 0-58.5 22.75t-24.5 54.75z" />
<glyph unicode="&#xf01b;" glyph-name="math" d="M0 352q0 98 38 186.75t102.25 153 153 102.25 186.75 38q97.5 0 186.5-38t153.25-102.25 102.25-153 38-186.75q0-97.5-38-186.5t-102.25-153.25-153.25-102.25-186.5-38q-98 0-186.75 38t-153 102.25-102.25 153.25-38 186.5zM90.5 352q0-79 30.75-151.25t83-124.5 124.5-83.25 151.25-31 151.5 31 124.75 83.25 83.25 124.5 31 151.25-31 151.25-83.25 124.5-124.75 83.25-151.5 31-151.25-31-124.5-83.25-83-124.5-30.75-151.25zM210.5 383.5q0 16 12 27.5t29 11.5h110l83.5-127.5 46.5 266.5h156.5q17.5 0 30-11.75t12.5-27.75-12.5-27.75-30-11.75h-87l-69.5-401-175.5 263.5h-64.5q-17 0-29 11.25t-12 27.25z" />
<glyph unicode="&#xf01c;" glyph-name="math-black" d="M0 352q0 98 38 186.75t102.25 153 153.25 102.25 186.5 38 186.5-38 153.25-102.25 102.25-153 38-186.75q0-97.5-38-186.5t-102.25-153.25-153.25-102.25-186.5-38-186.5 38-153.25 102.25-102.25 153.25-38 186.5zM210.5 383.5q0-16 12-27.25t29-11.25h64.5l175.5-263.5 69.5 401h87q17.5 0 30 11.75t12.5 27.75-12.5 27.75-30 11.75h-156.5l-46-266.5-84 127.5h-110q-17 0-29-11.5t-12-27.5z" />
<glyph unicode="&#xf01d;" glyph-name="paperplane-ico" horiz-adv-x="1174" d="M5.75 784.25q12.75 13.75 46.75-0.25l1087.5-437.5q21.5-8.5 29.75-21t1.5-25.25-26.75-23.25l-193.5-93-135-239q-18.5-29-48.25-31.75t-54.75 21.75l-26.5 27q-2.5 2.5-3.5 3l-59.5 60.5-146-68.5q-32.5-14.5-66.5-2t-49.5 45l-353 737.5q-15.5 33-2.75 46.75zM212.75 648.75q-2.75-3.75 24.25-27.75l388-346q27-24.5 68.25-32.25t71.25 5.25q30.5 13 30 36.25t-32 41.75l-515 308q-32 18.5-34.75 14.75z" />
<glyph unicode="&#xf01e;" glyph-name="paperplane" d="M0 352q0 97.5 38 186.5t102.25 153.25 153.25 102.25 186.5 38 186.5-38 153.25-102.25 102.25-153.25 38-186.5-38-186.5-102.25-153.25-153.25-102.25-186.5-38-186.5 38-153.25 102.25-102.25 153.25-38 186.5zM90.5 352q0-106 52.25-195.75t141.75-142 195.5-52.25 195.75 52.25 142.25 142 52.5 195.75q0 79-31 151.25t-83.25 124.5-124.75 83.25-151.5 31-151.25-31-124.5-83.25-83-124.5-30.75-151.25zM211.5 557q6.5 7 23.5 0.5l541.5-218.5q11-4 15.25-10t1-12.5-13.25-11.5l-96.5-46.5-67.5-119q-9.5-14.5-24.25-16t-27.25 11l-13 13.5q-1.5 1.5-2 1.5l-29.5 30-72.5-34q-16-7-33-0.75t-25 22.25l-176 367q-8 16-1.5 23zM315 490q-0.5-1 2.5-4.75t9.5-9.75l193-172q14-12 34.25-15.75t35.25 2.75q15.5 6.5 15.25 18t-16.25 21l-256.5 153q-8 4.5-12.25 6.5t-4.75 1z" />
<glyph unicode="&#xf01f;" glyph-name="paperplane-black" d="M0 352q0 97.5 38 186.5t102.25 153.25 153.25 102.25 186.5 38 186.5-38 153.25-102.25 102.25-153.25 38-186.5-38-186.5-102.25-153.25-153.25-102.25-186.5-38-186.5 38-153.25 102.25-102.25 153.25-38 186.5zM205 557q-6.5-7 1.5-23l176-367q8-16 24.75-22.25t32.75 0.75l73 34 31-31.5 13.5-13.5q12-12.5 27-11t24 16l67.5 119 96.5 46.5q15.5 8 14.75 17.75t-16.75 16.25l-542 218.5q-17 6.5-23.5-0.5zM308 490q1.5 2 17-7.5l257.5-153q15.5-9.5 15.75-21t-14.75-18q-15.5-6.5-35.75-2.75t-34.25 15.75l-193 172q-14 12.5-12.5 14.5z" />
<glyph unicode="&#xf020;" glyph-name="color-balance" d="M0 352q0 97.5 38 186.25t102.5 153.25 153.25 102.5 186.25 38 186.5-38 153.25-102.5 102.25-153.25 38-186.25-38-186.25-102.25-153.25-153.25-102.5-186.5-38-186.25 38-153.25 102.5-102.5 153.25-38 186.25zM406.5 121q0-47.5 33.25-80.75t80.75-33.25q3 0 11-1 83.5 12.5 151.75 61t107.75 123.5 39.5 161.5q0 92-44.5 171t-121.25 126.75-168.25 52.25q62-98 62-214.5 0-83-31.5-157.25t-88-130.75q-32.5-34-32.5-78.5z" />
<glyph unicode="&#xf022;" glyph-name="star-half" horiz-adv-x="493" d="M3 454.25q-12 30.75 16 49t90 18.25h238l72.5 220q14.5 44.5 33.75 67.5t39.25 22v-745.5l-193-140q-50.5-36-84-37.25t-41.25 30.25 10.25 91l0.5 1.5 0.5 1 72 218.5-186.5 133-2.5 2.5-3 1.5q-50.5 36-62.5 66.75z" />
<glyph unicode="&#xf024;" glyph-name="star-half-empty" horiz-adv-x="511" d="M3 440.5q-12.5 32 16.5 50.75t93.5 18.75h247.5l75 228 0.5 1q15 46 34.5 69.5t40.5 23.5v-172.5l-81.5-245.5h-257l208-148.5-21.5-67-58.5-177 210.5 150.5v-118l-199.5-142.5q-53.5-39.5-90-39.5-33 0-41 32.75t11.5 93.75l1 3.5 74.5 226-194 139-2.5 2.5-3 1.5q-52.5 37.5-65 69.5z" />
<glyph unicode="&#xf025;" glyph-name="reload" horiz-adv-x="1043" d="M2.25 443.5q5.25 8.5 20.25 8.5h70.5q17.5 80.5 61 150.75t104.75 120.75 140.25 79.5 164 29q97.5 0 186.25-38t153.25-102 102.5-152.75 38-186.25-38-186.5-102.5-153.5-153.25-102.75-186.25-38.25q-165 0-295.5 102-24.5 19-28.25 49.75t15.25 54.75q19 24.5 49.75 28.25t54.75-15.25q91-70 204-70 90 0 166 44.5t120.25 120.75 44.25 166.25q0 67-26.25 128.25t-70.5 105.5-105.5 70.5-128.25 26.25q-109.5 0-196.25-64.75t-119.25-166.75h44.5q15 0 20-8.5t-3-21l-138-227q-6-8-14-8-3.5 0-6.75 2t-4.75 4l-1.5 2-139 227q-8 12.5-2.75 21z" />
<glyph unicode="&#xf028;" glyph-name="heart-broken" d="M0 537q0 105.5 75.25 180.25t181.25 74.75q82.5 0 150-48.5l-14.5-255.5q0.5-12.5 9.5-21.25t21.5-8.75h10.5q12.5 0 18.5-8.25t2.5-20.25l-58.5-176.5q-3.5-12-1.25-13.5t9.25 8.5l198.5 273q7 9.5 3.75 16.75t-15.75 7.25h-79q-12.5 0-18 8t-0.5 19l83.5 186.5q59 33.5 127 33.5 106 0 181.25-74.75t75.25-180.25q0-97-65-170l-351-413.5q-26-31-63.75-31t-64.25 31l-350.5 413.5q-65.5 73-65.5 170z" />
<glyph unicode="&#xf029;" glyph-name="hashtag" horiz-adv-x="934" d="M1.5 205.5q5 25.5 26.25 42.75t47.25 17.25h152.5l37 173.5h-139q-28.5 0-47 22-17.5 22.5-11.5 52 5 26 26 43t47 17h152.5l32.5 153.5q5.5 26 26.75 43.25t47.25 17.25q30 0 47.5-22t11-52l-29.5-140h171.5l32.5 153.5q5.5 26 26.5 43.25t47 17.25q30 0 47.5-22 18-21 11.5-52l-29.5-140h138.5q29 0 47.5-22 17.5-22.5 11.5-52-5-26-26-43t-47-17h-152.5l-37.5-173.5h139q29 0 47.5-22 17.5-22.5 11.5-52.5-5.5-26-26.25-43t-46.75-17h-153.5l-32-153.5q-5.5-26-26.5-43t-47-17q-29 0-47.5 21.5-17.5 22.5-11.5 52l30 140h-172l-33-153.5q-5.5-26-26.25-43t-46.75-17q-29 0-47.5 21.5-17.5 22.5-11.5 52l30 140h-139q-29.5 0-47.5 22.5-18 21-11.5 52zM363 265.5h171.5l37 173.5h-172z" />
<glyph unicode="&#xf02a;" glyph-name="reply" horiz-adv-x="943" d="M0 382.5q0 7 3.5 14t6.5 10l3.5 3.5 386 280.5q21 16 36.25 5.5t15.25-41v-114l27.5-2q98.5-8.5 185.75-55.5t149-120 96.75-169.5 33.5-201q-62 109.5-165.25 179t-227.75 80q-50.5 4.5-99.5-1.5v-140.5q0-30.5-15.25-41t-36.25 5.5l-386 281q-13.5 11.5-13.5 27z" />
<glyph unicode="&#xf02b;" glyph-name="retweet" horiz-adv-x="947" d="M1.75 268q5.75 9.5 21.75 9.5h64.5v352q0 32.5 22.5 55.25t55 22.75h491.5l-106-157h-307.5v-273h65q16 0 21.5-9.5t-3-22.5l-147-240q-6-8-14.5-8-3.5 0-7 2t-5.5 4l-1.5 2-147 240q-8.5 13-2.75 22.5zM290.5-2.5l105.5 156.5h307.5v273.5h-65q-16 0-21.5 9.5t3 22l147 240q5.5 8.5 14 8.5 3.5 0 7.25-2t5.75-4l1.5-2.5 147-240q8.5-12.5 2.75-22t-21.75-9.5h-64.5v-352q0-32.5-22.75-55.25t-55.25-22.75h-490.5z" />
<glyph unicode="&#xf02c;" glyph-name="signin" d="M0 361.5q0 34 24.25 58t58.25 24h352.5l-113.5 113.5q-24 24-24 58t24 58.5q24.5 24 58.75 24t58.25-24l253-254q24.5-24 24.5-58t-24.5-58l-248-248.5q-24-24-58.25-24t-58.25 24-24 58 24 58.5l108 107.5h-352.5q-34 0-58.25 24.25t-24.25 58.25zM596-45.5q0 34 24.25 58.25t58.25 24.25h73.5q18 0 30.75 12.5t12.75 30.5v545q0 17.5-12.75 30t-30.75 12.5h-73.5q-34 0-58.25 24.25t-24.25 58.25 24.25 58 58.25 24h73.5q86.5 0 147.25-60.5t60.75-146.5v-545q0-86.5-61-147.25t-147-60.75h-73.5q-34 0-58.25 24.25t-24.25 58.25z" />
<glyph unicode="&#xf02d;" glyph-name="signout" d="M0 80q0-86 60.75-147t146.75-61h74q34 0 58.25 24.25t24.25 58.25-24.25 58.25-58.25 24.25h-74q-17.5 0-30.25 12.5t-12.75 30.5v545q0 17.5 12.75 30t30.25 12.5h74q34 0 58.25 24.25t24.25 58.25-24.25 58-58.25 24h-74q-86 0-146.75-60.5t-60.75-146.5v-545zM244 338q0 34 24.25 58t58.25 24h352.5l-112.5 113.5q-24.5 24-24.5 58.25t24.5 58.25q24 24 58 24t58-24l253.5-254q24-24 24-58t-24-58l-248.5-248.5q-24-24-58-24t-58.5 24q-24 24-24 58t24.5 58.5l107.5 107.5h-352.5q-33.5 0-58 24.5t-24.5 58z" />
<glyph unicode="&#xf02e;" glyph-name="download" d="M0 80v74q0 34 24.25 58t58.25 24 58-24 24-58v-74q0-18 12.75-30.5t30.25-12.5h545q17.5 0 30.25 12.5t12.75 30.5v74q0 34 24 58t58 24 58.25-24 24.25-58v-74q0-86-60.75-147t-146.75-61h-545q-86 0-146.75 61t-60.75 147zM158.5 447.5q0 34 24.5 58 24 24 58 24t58-24l108-108v352.5q0 34 24 58t58 24 58.25-24 24.25-58v-352.5l113 113q24 24 58 24t58-24q24.5-24 24.5-58.25t-24.5-58.25l-253-253q-25-25-58.5-25-33 0-58 25l-248 248q-24.5 24.5-24.5 58.5z" />
<glyph unicode="&#xf02f;" glyph-name="upload" d="M0 80v74q0 34 24.25 58t58.25 24 58-24 24-58v-74q0-18 12.75-30.5t30.75-12.5h544.5q17.5 0 30.25 12.5t12.75 30.5v74q0 34 24 58t58 24 58.25-24 24.25-58v-74q0-86-60.75-147t-146.75-61h-544.5q-86 0-147 60.75t-61 147.25zM159 496.75q0 34.25 24 58.25l253 253q24 24 58.5 24 34 0 58-24l248.5-248q24-24.5 24-58.5t-24-58q-24.5-24-58.5-24t-58 24l-108 108v-353q0-34-24-58.25t-58-24.25q-33.5 0-58 24.25t-24.5 58.25v353l-113-113q-24-24-58-24t-58 24-24 58.25z" />
<glyph unicode="&#xf031;" glyph-name="placepin" horiz-adv-x="708" d="M0 478.5q0 71.5 28 137.5 25.5 62.5 75.5 113 48.5 48.5 112.5 75 65 28 137.5 28 74 0 138-28 63.5-26.5 112.5-75 50-50 76-113 28-66 28-137.5t-28-137.5q-18-40.5-37-67l-234-355.5q-23-35-55-35t-55.5 35l-233.5 355.5q-23 32-37 67-28 66-28 137.5zM222.5 478.5q0-55 38-93 39-39 93-39 55.5 0 93.5 39 38.5 37.5 38.5 93 0 54.5-38.5 93-38 39-93.5 39-54 0-93-39-38-39-38-93z" />
<glyph unicode="&#xf032;" glyph-name="display-screen" horiz-adv-x="1080" d="M0 158.5v538.5q0 37 26.75 63.25t63.75 26.25h900q37 0 63.25-26.25t26.25-63.25v-538.5q0-37-26.25-63.75t-63.25-26.75h-260q8.5-80.5 29.5-93 14.5-8.5 27.25-13.75t18.25-6.25l5.5-1v-36h-540v36q18 1.5 50.5 21 21.5 13.5 30 93h-261q-37 0-63.75 26.75t-26.75 63.75z" />
<glyph unicode="&#xf033;" glyph-name="tablet" horiz-adv-x="718" d="M0-38v780q0 37 26.25 63.5t63.25 26.5h538.5q37 0 63.25-26.5t26.25-63.5v-780q0-37-26.25-63.5t-63.25-26.5h-538.5q-37 0-63.25 26.5t-26.25 63.5zM315.5 31.5q0-19 13.25-32t31.75-13 31.5 13.25 13 31.75-13 31.5-31.5 13-31.75-13-13.25-31.5z" />
<glyph unicode="&#xf034;" glyph-name="smartphone" horiz-adv-x="570" d="M0-25v754.5q0 42.5 29.5 72.5t71.5 30h368q42 0 71.75-30t29.75-72.5v-754.5q0-42.5-29.75-72.75t-71.75-30.25h-368q-42 0-71.5 30t-29.5 73zM240 37.5q0-19 13.25-32.25t31.75-13.25 32 13.5 13.5 32-13.5 31.5-32 13-31.75-13-13.25-31.5z" />
<glyph unicode="&#xf035;" glyph-name="connected-object" horiz-adv-x="810" d="M0-38v780q0 37 26.25 63.5t63.25 26.5h630.5q37 0 63.25-26.5t26.25-63.5v-780q0-37-26.25-63.5t-63.25-26.5h-630.5q-37 0-63.25 26.5t-26.25 63.5zM183.5 263q0-60.5 29.5-111.5t80.75-80.75 111.25-29.75q92 0 157.25 65t65.25 157-65.25 157.25-157.25 65.25q-45 0-86-17.75t-70.75-47.5-47.25-71-17.5-86.25zM243.5 270.5q3 64.5 49.75 109.75t111.75 45.25q61 0 106.5-40.25t54-99.75q0-0.5-0.25-1.75t-0.25-2.25q0-21.5-15.5-37t-37-15.5q-22 0-36.5 14.5-55.5 55.5-133 55.5-55 0-99.5-28.5zM600 666.5q0-18.5 13.25-31.5t31.75-13 31.5 13 13 31.5-13 31.75-31.5 13.25q-19 0-32-13t-13-32z" />
<glyph unicode="&#xf039;" glyph-name="isight" d="M0 352q0 97.5 38 186.5t102.25 153.25 153.25 102.25 186.5 38 186.5-38 153.25-102.25 102.25-153.25 38-186.5-38-186.25-102.25-153.25-153.25-102.5-186.5-38-186.5 38-153.25 102.5-102.25 153.25-38 186.25zM180 352q0-81 40.25-150.25t109.25-109.5 150.5-40.25 150.5 40.25 109.25 109.5 40.25 150.25q0 81.5-40.25 150.5t-109.25 109.25-150.5 40.25-150.5-40.25-109.25-109.25-40.25-150.5zM361 198.5q101 6.5 170.75 80.5t69.75 176q0 27.5-5.5 54 36.5-27 57.75-68.5t21.25-88.5q0-80.5-57.25-137.5t-137.75-57q-66.5 0-119 41z" />
<glyph unicode="&#xf03a;" glyph-name="video-camera" horiz-adv-x="1141" d="M0 161.5v382.5q0 63.5 44.5 108.75t106.5 45.25h562.5q60.5 0 104-43t46.5-104l213 136q26 17.5 44.75 6.5t18.75-44.5v-592q0-33.5-18.75-45t-44.75 6l-213 136.5q-2.5-61.5-46.25-104.25t-104.25-42.75h-562.5q-62.5 0-106.75 45.25t-44.25 108.75zM651.5 523q0-18.5 13.25-31.75t31.75-13.25 31.75 13.25 13.25 31.75-13.25 31.75-31.75 13.25-31.75-13.25-13.25-31.75z" />
<glyph unicode="&#xf03b;" glyph-name="random" horiz-adv-x="1080" d="M0 28v178h235q28 0 52.5 10 32.5-86.5 101-149-72.5-39-153.5-39h-235zM0 498v177.5h235q66 0 126-25.75t103.25-69 69-103.25 25.75-126q0-60 42.75-102.75t103.25-42.75h86.5q1.5 0 4-0.25t4-0.25v54q0 16 9.5 21.75t22.5-2.75l240-147.5q8.5-5.5 8.5-14 0-3.5-2-7.25t-4-5.25l-2.5-2-240-147q-13-8.5-22.5-3t-9.5 21.5v55q-1.5 0-4-0.5t-4-0.5h-86.5q-66 0-126 25.75t-103.25 69-69 103-25.75 125.75q0 60.5-42.75 103.5t-103.25 43h-235zM551 637q70 38.5 154 38.5h86.5q1.5 0 4-0.25t4-0.25v55q0 16 9.5 21.75t22.5-2.75l240-148q8.5-6 8.5-14 0-4-2-7.5t-4-5l-2.5-1.5-240-147.5q-13-8.5-22.5-3t-9.5 21.5v54.5q-1.5 0-4-0.25t-4-0.25h-86.5q-26.5 0-52.5-10.5-33 87.5-101.5 149.5z" />
<glyph unicode="&#xf03d;" glyph-name="discussion" horiz-adv-x="1326" d="M0 485q0 110.5 70 204.25t190 148.25 261.5 54.5q106.5 0 203-32.25t166-86.75 110.75-129.75 41.25-158.25q0-66.5-26.25-128.5t-74.25-112.25-112-88-143.75-58.25-164.75-20.5q-106 0-198.5 30.5l-119-83q-66.5-42.5-93.75-24.75t-11.25 99.25l24 124q-58.5 54-90.75 121.25t-32.25 140.25zM665.5 5.5q121 24 220.5 84.5t162.25 148.75 76.75 190.75q91-36.5 145.75-105t54.75-150.5q0-50.5-22.5-98t-63-85.5l17.5-87.5q10-57-8.75-69.5t-65.75 17.5l-83.5 59q-65-22-139.5-22-89.5 0-167 31.5t-127.5 86z" />
<glyph unicode="&#xf03f;" glyph-name="ringbell" horiz-adv-x="927" d="M0 444.5q1 22 15 42.5 15.5 23.5 40.25 35.75t49.75 10.25q3 0 8.5-1 42-4 77 7 94.5 30.5 244.5 180.5 55.5 55.5 129.75 75t148.25 0 129.5-75 75-129.75 0-148.25-75-129.5q-41.5-41.5-73.5-78.5t-52-64.75-33.75-53-19.75-42.25-8.5-34-2-27 1.5-21.5q1-6 1-9 2-25-10.5-50t-35.5-40.5q-20.5-13.5-42.5-14.75t-47.5 6.25q-0.5 0-10.75 2.5t-20.75 5.5-29.5 10.5-38.25 16.5-45.25 24.5-52 34-57.75 45.25-62.75 57.75q-28 28-52.25 56t-42 52.5-32.5 47.5-25 43.25-17.75 37-12.5 31.5-7.5 24-4.5 17.25-2 8.5q-7.5 25.5-6.5 47.5zM100.5 377.5q5-30.5 24-68.75t53.75-84.25 78.75-90q90.5-90 174.5-133t113-13.5q21.5 23 2 78.25t-72 123.25q-8-11-14.5-17.5-34-33.5-82.5-33.5t-82.5 33.5q-34 34-34 83t34 83q6.5 5.5 17 13.5-68 52.5-123 72.25t-78-1.75q-15.5-14-10.5-44.5z" />
<glyph unicode="&#xf040;" glyph-name="movie" d="M0-38v780q0 37 26.75 63.5t63.75 26.5h120v-180h540v180h120q37 0 63.25-26.5t26.25-63.5v-780q0-37-26.25-63.5t-63.25-26.5h-120v180h-540v-180h-120q-37 0-63.75 26.5t-26.75 63.5zM75.5 7v-60h60v60h-60zM75.5 97.5h60v60h-60v-60zM75.5 247h60v60h-60v-60zM75.5 397.5h60v60h-60v-60zM75.5 547h60v60h-60v-60zM75.5 697.5h60v60h-60v-60zM210.5 202h540v300h-540v-300zM824.5 7v-60h60v60h-60zM824.5 97.5h60v60h-60v-60zM824.5 247h60v60h-60v-60zM824.5 397.5h60v60h-60v-60zM824.5 547h60v60h-60v-60zM824.5 697.5h60v60h-60v-60z" />
<glyph unicode="&#xf044;" glyph-name="measure" horiz-adv-x="945" d="M0 141.25q0-32.25 23-55.75l184-184q20-20 47.5-22.5t50.5 12.5l-98 98.5 42 42 99.5-100 42.5 42.5-100 99.5 42 42 99.5-99 42.5 41.5-99.5 100 41.5 41.5 100-99 40 40-100 99 42.5 42.5 100-99.5 41.5 42-99.5 100 42.5 42 99.5-100 42 42.5-100 99.5 42.5 42 99.5-100 42 42.5-99 100 41.5 41.5 100-99.5 42.5 42.5-100 99.5 42 42 98-97.5q13.5 22.5 10.5 49.5t-22 46l-184 184.5q-23.5 23-55.75 23t-55.75-23.5l-604-604.5q-23.5-23.5-23.5-55.75z" />
<glyph unicode="&#xf045;" glyph-name="vector" horiz-adv-x="1256" d="M0 35l139 139 48.5-48.5 225 225q-31 45.5-26 101.75t45 96.75q40 40 96.25 44.75t101.75-26.75l225.5 226-48.5 48.5 138.5 138.5 139-138.5-139-139-48.5 48.5-145.5-145.5q68 16 125.5 16 103.5 0 198.5-39.5t168-112.5q13-13 13-31.5t-13-31.5-31.5-13-31.5 13q-61 61-139.25 93.25t-164.25 32.25q-99 0-187.5-43 15-40.5 5.25-85t-41.75-76.5q-32.5-32-76.5-41.75t-84.5 5.25q-38.5-80-43-168.25t27.5-173 97-149.75q13-13 13-31.25t-13-31.25q-13.5-13.5-31.5-13.5-17 0-30.5 13.5-98.5 98-133.5 229.75t-2 262.25l-146.5-146 48.5-48.5-138.5-139zM83.5 35l55.5-55.5 54.5 55.5-54.5 55zM890.5 841.5l54.5-55.5 55 55.5-55 54.5z" />
<glyph unicode="&#xf047;" glyph-name="mute-on" horiz-adv-x="903" d="M0 742.5q0 18.5 13 31.5 13 12.5 32 12.5t32-12.5l813.5-802q13-12.5 13-31t-13-31q-12.5-13-31.5-13t-32 13l-814 801q-13 13-13 31.5zM121.5 295v108.5q0 18.5 13.25 31.5t32.25 13q18.5 0 31.75-13t13.25-31.5v-108.5q0-91 65.75-155.75t158.25-64.75q60.5 0 110.5 28.5l65-64.5q-58-38-128-49v-43.5h140q18.5 0 31.75-13t13.25-31q0-18.5-13.25-31.5t-31.75-13h-370.5q-18.5 0-31.75 13t-13.25 31.5q0 18 13.25 31t31.75 13h140v43q-75.5 10-137.75 53t-98 109.75-35.75 143.25zM269.5 300v75l230-226q-31.5-13-63.5-13-69 0-117.75 48t-48.75 116zM269.5 667.5v15.5q0 68 48.75 116t117.75 48 117.75-48 48.75-116v-343.5zM660 283q0 2 0.25 6t0.25 6v108.5q0 18.5 13 31.5t31.5 13q19 0 32.25-13t13.25-31.5v-108.5q0-43.5-13.5-88z" />
<glyph unicode="&#xf048;" glyph-name="mute-off" horiz-adv-x="629" d="M0 295v108.5q0 18.5 13 31.5t31.5 13 31.75-13 13.25-31.5v-108.5q0-91 66-155.75t159-64.75q92.5 0 158.25 64.75t65.75 155.75v108.5q0 18.5 13.25 31.5t31.75 13 31.75-13 13.25-31.5v-108.5q0-115.5-76.75-201.75t-190.75-103.75v-43.5h140q18.5 0 32-13t13.5-31q0-18.5-13.25-31.5t-32.25-13h-370q-18.5 0-31.5 13t-13 31.5q0 18 13 31t31.5 13h140.5v43q-75.5 10-137.75 53t-98 109.75-35.75 143.25zM148 300v383q0 68 48.75 116t117.75 48q68.5 0 117-48t48.5-116v-383q0-68-48.5-116t-117-48q-69 0-117.75 48t-48.75 116z" />
<glyph unicode="&#xf04a;" glyph-name="sheet" horiz-adv-x="810" d="M0-38v780q0 37 26.25 63.5t63.25 26.5h364q3.5 0 6-0.5h0.5q39-3 62.5-26.5l261-251q11-12 16.5-25 2-5 2.5-6.5 0.5-1 2.25-5t2.25-6.5q2.5-11.5 2.5-21v-528q0-37-26.25-63.5t-63.25-26.5h-630.5q-37 0-63.25 26.5t-26.25 63.5zM89.5-38h630.5v476.5h-136q-74.5 0-127.25 52.75t-52.75 127.25v123.5h-314.5v-780zM494.5 618.5q0-37 26.25-63.25t63.25-26.25h121l-210.5 199v-109.5z" />
<glyph unicode="&#xf04f;" glyph-name="dribbble-circle" d="M0 352q0 97.5 38 186.5t102.25 153.25 153.25 102.25 186.5 38 186.5-38 153.25-102.25 102.25-153.25 38-186.5-38-186.5-102.25-153.25-153.25-102.25-186.5-38-186.5 38-153.25 102.25-102.25 153.25-38 186.5zM187 353q0-60 23-114.25t62-93.75 93-62.75 114-23.25q80 0 147.75 39.25t107 107 39.25 147.75q0 79.5-39.25 146.75t-107 106.5-147.75 39.25q-60 0-114-23.25t-93-62.5-62-93.25-23-113.5zM235.5 340q6.5 0 17.5-0.75t16.5-0.75q107 0 220 40 6-16.5 15-34.5-63-22-115.5-62t-88.5-95q-62.5 64.5-65 153zM237 389.5q9.5 57.5 44.25 105.25t86.25 74.75q61.5-73.5 100.5-146-93.5-34-198.5-34h-32.5zM336.5 153q70 106.5 184 144 28.5-85.5 36-177-34.5-12.5-77.5-12.5-74 0-142.5 45.5zM416 587.5q37 9.5 63 9.5 98 0 169.5-69-61.5-54-135.5-86.5-38.5 72.5-97 146zM535 396q74.5 34 146 94 43.5-65 43.5-137-56.5 13-93.5 13-31 0-79.5-9-2.5 6-8 19.5t-8.5 19.5zM567.5 310q30.5 5 63.5 5 43 0 88.5-11-11.5-52-41.5-94.25t-74.5-67.75q-12 96.5-36 168z" />
<glyph unicode="&#xf050;" glyph-name="dribbble" d="M0 353.5q0 97 37.75 185.5t101.75 152.75 152.75 102.25 186.25 38q98 0 187.25-38t153.75-102.25 102.5-152.75 38-185.5q0-98-38-187t-102.5-153.5-153.75-102.75-187.25-38.25-186.5 38.25-152.5 102.75-101.75 153.5-37.75 187zM80 333q2-70.5 29.75-135t76.75-116q59 90 144.75 155.5t188.75 101.5q-11.5 22.5-24 56-184-65-360-65-8.5 0-27 1.5t-29 1.5zM83 413h53q169.5 0 324.5 56-62 117-165 239-84.5-45-140.75-122.75t-71.75-172.25zM245 26q111.5-74.5 233.5-74.5 67.5 0 127 21.5-13 147-59 289-92.5-30.5-169.25-91t-132.25-145zM375.5 737.5q93-115.5 159.5-239 121 54 221 141.5-55.5 54-126.75 83t-150.75 29q-46 0-103-14.5zM570.5 424q4-10.5 12.75-32.5t13.25-32q78.5 15 130.5 15 60 0 153-21 0 116-71 224.5-113.5-95-238.5-154zM623.5 282.5q39.5-120.5 59-274.5 72.5 42 122 111.5t67 154.5q-73.5 17.5-144.5 17.5-54.5 0-103.5-9z" />
<glyph unicode="&#xf051;" glyph-name="facebook-circle" d="M0 352q0 97.5 38 186.5t102.5 153.25 153.25 102.25 186.25 38 186.5-38 153.25-102.25 102.25-153.25 38-186.5-38-186.5-102.25-153.25-153.25-102.25-186.5-38-186.25 38-153.25 102.25-102.5 153.25-38 186.5zM359.5 352h53.5v-259h107v259h72l9 89.5h-80.5v45q0 20 6 27.75t29.5 7.75h44.5v89.5h-71.5q-62.5 0-89.25-29.5t-26.75-87v-53.5h-53.5v-89.5z" />
<glyph unicode="&#xf052;" glyph-name="facebook" horiz-adv-x="448" d="M0 352h99.5v-480h198v480h133l17.5 165.5h-149.5v82.5q0 19 1.75 29.25t8 20 19.75 13.5 36 3.75h83v165.5h-132.5q-115 0-165-54.5t-50-160.5v-99.5h-99.5v-165.5z" />
<glyph unicode="&#xf053;" glyph-name="git-circle-alt" d="M0 352q0 97.5 38 186.5t102.25 153.25 153.25 102.25 186.5 38 186.25-38 153.25-102.25 102.5-153.25 38-186.5-38-186.5-102.5-153.25-153.25-102.25-186.25-38-186.5 38-153.25 102.25-102.25 153.25-38 186.5zM188 150q0-32 19.25-54.25t48.25-29.25q26.5-7.5 60-7.5 125.5 0 125.5 105 0 25.5-13.5 43t-35.5 25q-1.5 0.5-17.25 5t-24.25 6.5q-49.5 12.5-49.5 35.5 0 24.5 27.5 29 43 8.5 68.5 39.75t25.5 75.25q0 12.5-6 29 24 6.5 27.5 7.5v70.5q-43.5-16.5-75.5-16.5-28.5 16.5-62 16.5-48.5 0-81.5-32.25t-33-80.25q0-29 16.75-57.75t40.75-37.25v-1.5q-21-10-21-48 0-29 23-43v-2q-63.5-21.5-63.5-78zM259 154q0 36 54.5 36 58 0 58-34.5 0-37-52.5-37-60 0-60 35.5zM266.5 417q0 50.5 42.5 50.5 20 0 31-14.25t11-35.75q0-47.5-42-47.5-42.5 0-42.5 47zM468.5 630q0-20.5 14-35.5t33.5-15 33.5 15.25 14 35.25q0 20.5-13.75 35.75t-33.75 15.25-33.75-15-13.75-36zM477 224h77.5q-1.5 22.5-1.5 50.5v209q0 23.5 1.5 43h-77.5q2-19 2-44.5v-211.5q0-25.5-2-46.5zM587 461l20.5 1.5h7q3-0.5 6-0.5v-1h-1v-122.5q0-42 8-67.5 10.5-33.5 38-44.5 16.5-7 37.5-7 35 0 60.5 14v68q-17.5-12-38.5-12-29.5 0-29.5 46v126.5h29q8.5 0 15-0.5t15-0.5v65.5h-59q0 46 1.5 57h-78.5q2-12 2-30.5v-26.5h-33.5v-65.5z" />
<glyph unicode="&#xf054;" glyph-name="git-circle" d="M0 352q0 97.5 38 186.5t102.25 153.25 153.25 102.25 186.5 38 186.5-38 153.25-102.25 102.25-153.25 38-186.5-38-186.5-102.25-153.25-153.25-102.25-186.5-38-186.5 38-153.25 102.25-102.25 153.25-38 186.5zM202.5 320q0-67.5 20-109 24-45.5 68.5-64.5 47.5-22 95.5-27 40.5-5 95-5 30.5 0 55 1.5 64 3 113 22.5 58 24.5 81.5 72.5 20 42.5 20 109 0 78.5-45.5 131.5 9.5 25.5 9.5 55.5 0 37.5-16.5 71.5-34 0-61-12t-63-40.5q-45.5 11-93 11-53.5 0-101.5-12-38 29.5-64.5 41.5t-60.5 12q-17.5-34-17.5-71.5 0-26 9.5-56-44.5-52-44.5-131zM276 262q0 41 23.25 68.25t61.25 27.25q14.5 0 64-7.5 21.5-3.5 52-3.5 30 0 51.5 3.5 51.5 7.5 64.5 7.5 38 0 61.25-27.25t23.25-68.25q0-28.5-10.5-50.5-19.5-39.5-67-53.5-40.5-12-95.5-12h-55.5q-29 0-49 2-55.5 6-86.5 30-37 27.5-37 84zM328.5 262q0-15.5 4.5-27 4-15 14.5-25.5t23.5-10.5q13.5 0 24 11 18 21 18 52 0 15-4 27.5-4.5 15-14.75 25.5t-23.25 10.5q-13.5 0-24-11-18.5-21.5-18.5-52.5zM540 262q0-15 4-27 4-15 14.25-25.5t23.25-10.5q14 0 25 11 17.5 20 17.5 52 0 15-4 27.5-4 15-14.5 25.5t-24 10.5-23-11q-18.5-20.5-18.5-52.5z" />
<glyph unicode="&#xf055;" glyph-name="git" d="M0 306.5q0-120 36-191.5 38.5-76 119.5-112.5 82-38.5 167.5-47.5 77-9 166-9 38.5 0 96.5 3 48.5 3 103.25 13.25t94.25 26.75q45 19 83 51.25t59 74.75q35 71.5 35 191.5 0 137-78.5 229 15.5 46.5 15.5 97.5 0 67.5-29 125.5-59.5 0-106.25-21t-110.75-71q-78.5 18.5-162 18.5-91 0-178-20-65.5 51.5-112.25 72.5t-106.25 21q-29.5-57.5-29.5-125.5 0-51.5 15.5-98.5-78.5-92-78.5-228zM129 205q0 71 40.75 118.5t107.25 47.5q26.5 0 112.5-12.5 44-6.5 90.5-6.5t91 6.5q87.5 12.5 112.5 12.5 66.5 0 107-47.5t40.5-118.5q0-50.5-18.5-89-18.5-37-46.25-58.75t-70.75-34.75q-71-21.5-167-21.5h-97q-47.5 0-86 4.5-41 4-82.5 17.5t-68.5 34q-29.5 23-47.5 61.25t-18 86.75zM221.5 205q0-23.5 7.5-47.5 7.5-26 25.75-44.75t40.75-18.75q24 0 42 19.5 31.5 36.5 31.5 91.5 0 23-6.5 47-7.5 26-25.75 44.75t-41.25 18.75q-24 0-42-20-32-34.5-32-90.5zM591 205q0-23.5 7.5-47.5 7.5-26 25.5-44.75t40.5-18.75q24.5 0 42.5 19.5 31.5 36.5 31.5 91.5 0 21.5-7 47-7.5 26-25.75 44.75t-41.25 18.75q-24 0-41-20-32.5-34.5-32.5-90.5z" />
<glyph unicode="&#xf056;" glyph-name="octopus" d="M0 352q0-132.5 64.5-240.5 64.5-111.5 175-175.5t240.5-64q130.5 0 241.5 64 111 64.5 174.75 175.25t63.75 240.75q0 132-64 241.5-64.5 111-175.25 174.75t-240.75 63.75q-132.5 0-240.5-64.5-111.5-64.5-175.5-175t-64-240.5zM80 352q0 80 31.5 154.5t86 128.5q54.5 54.5 128.5 85.75t154 31.25 154.5-31.25 129-85.75q54-54 85.25-128.5t31.25-154.5q0-86-35.25-164t-99-134.75-145.75-82.25v141q0 52.5-43 82 105.5 9.5 154.25 53.5t48.75 139.5q0 74-45.5 124.5 9 27 9 52 0 37-17 68-33.5 0-60-11t-65-38q-46.5 10.5-96 10.5-56.5 0-105.5-11.5-37.5 27.5-64.75 38.75t-61.75 11.25q-16.5-31.5-16.5-68 0-26 8.5-52.5-45.5-49-45.5-124 0-95.5 48.5-139t155.5-53.5q-28.5-19-39.5-55.5-24.5-8.5-51-8.5-20 0-34.5 9-4.5 2.5-8.25 5.25t-7.75 6.75-6.5 6.25-6.5 7.75-5.25 7-6 8-5.25 7q-23.5 31-56 31-17.5 0-17.5-7.5 0-3 8.5-10 16-14 17-15 12-9.5 13.5-12 14.5-18 22-39.5 28-62.5 96-62.5 11 0 43 5v-106q-82 25.5-145.75 82.25t-99 134.75-35.25 164z" />
<glyph unicode="&#xf057;" glyph-name="twitter-circle" d="M0 352q0 97.5 38 186.5t102.25 153.25 153.25 102.25 186.5 38 186.5-38 153.25-102.25 102.25-153.25 38-186.5-38-186.5-102.25-153.25-153.25-102.25-186.5-38-186.5 38-153.25 102.25-102.25 153.25-38 186.5zM194.5 148q0-5 4.5-8 6.5-5 27.5-16 74.5-38 156.5-38 103 0 186 52.5 40 25.5 71 61.25t49.25 74.5 27.25 77.75 8.5 75.5v11q36 26 56 59.5 2 3 2 5.5 0 4-3.25 7.25t-7.25 3.25l-7.5-2.5q-19.5-8-22.5-8.5 8.5 10 16.75 25t8.25 22q0 3.5-3.25 6.5t-7.25 3q-2 0-5-1-37-20-65.5-26.5-37 36-89 36-52.5 0-89.5-37t-37-89.5q0-6.5 1-15.5-107 10-185.5 81-14 13.5-35 36-3.5 4-8.5 4-5.5 0-7.5-5-18-25-18-64 0-45 29.5-80-1 0-10 4-7 3.5-10.5 3.5-5 0-8.5-3t-3.5-8q0-33 16.5-61.75t44.5-46.25h-1.5q-1 0.5-2.5 0.5-1.5 0.5-4 0.5-4 0-7-2.75t-3-6.75q0-0.5 1-3.5 10-31.5 34.25-54t56.75-30.5q-53-33-117.5-33-1.5 0-14.5 1-3.5 0-8 0.25t-5.5 0.25q-3.5 0-6.5-3.25t-3-7.25z" />
<glyph unicode="&#xf058;" glyph-name="twitter" d="M0 63.5q0-7.5 7.5-13.5 12.5-8.5 44.5-25 122-63 256-63 167 0 303.5 86 65 41 115.5 98.75t80.25 120.5 44.5 125.75 13.75 122.5v17.5q58.5 42 91.5 96 3 6 3 9 0 6.5-5 11.5t-11.5 5q-3.5 0-12-4-6-2-14.75-5t-15-5.25-8.25-2.75q13 14.5 27 39.25t14 36.25q0 6.5-5 11.25t-12 4.75q-4 0-8-2.5-57-30.5-106.5-41.5-60.5 57.5-144.5 57.5-86 0-146.5-60t-60.5-145q0-15 2-24.5-84.5 7-163 40.5t-141 90q-14.5 14-56 58.5-6 6-14 6-6 0-12.5-8-13-19.5-20.5-47.75t-7.5-55.25q0-74.5 46.5-130l-14.5 7q-12.5 5.5-18.5 5.5-8.5 0-14.25-5t-5.75-13q0-52.5 27-99.5t73-75l-6 1q-1 0-2.75 0.5t-2.75 0.75-1.5 0.25q-6.5 0-11.25-5t-4.75-11q0-0.5 1-5.5 17-52 56.5-88.25t92.5-48.75q-87-53.5-192-53.5-7 0-22.5 1.5-21 1-23 1-6.5 0-11.25-5t-4.75-11.5z" />
<glyph unicode="&#xf059;" glyph-name="google-plus-circle" d="M0 352q0 97.5 38 186.5t102.25 153.25 153.25 102.25 186.5 38 186.5-38 153.25-102.25 102.25-153.25 38-186.5-38-186.5-102.25-153.25-153.25-102.25-186.5-38q-98 0-188.5 38.5h1q109 0 174 52t65 124q0 47.5-25 81.5-20.5 26.5-53 52-18 14-24.5 20-25.5 21.5-25.5 42.5 0 26 33.5 55 9 8.5 28 27.5 34 36 34 95 0 38.5-16.75 73.25t-46.75 53.25h57l58 33h-186.5q-38 0-79.5-8.5-60-13-100.25-60.25t-40.25-106.75q0-62.5 45.25-104.5t109.25-42q6.5 0 29.5 2-0.5-2.5-3.25-9.75t-3.25-8.25q-2.5-7.5-2.5-18.5 0-28.5 27.5-63.5-31.5-0.5-64-5.5-84.5-14-128-46-22.5-16.5-37-40.25t-18.5-48.25q-99 128.5-99 292.5zM176.5 63q0 27.5 11.5 46 19.5 34 71.5 51 42 14 91 14 11.5 0 21.5-1 2-1 27-18.5 1-1 7.25-5.5t11.75-8.75 7.5-6.25q1.5-1.5 6.75-6.5t10-9.5 6.75-7.5q0.5-2 8.5-13 6-8.5 7.5-15 6-18 6-32.5 0-54.5-43.5-78.5-38.5-22-91-22-56.5 0-105 26-25 13-40 36t-15 51.5zM223 489.5q0 43 22.5 71.5t61 28.5q27 0 50-17.25t36.5-44.75q27-57 27-110 0-44-19.25-69.25t-59.25-25.25q-21 0-41.5 11-35 21.5-57 69-20 43-20 86.5zM534.5 456h109v-109h54v109h109.5v54.5h-109.5v109h-54v-109h-109v-54.5z" />
<glyph unicode="&#xf05a;" glyph-name="google-plus" d="M0 52q0-39.5 17.5-69.5 30.5-56 107-84.5 65-26 139.5-26t136.75 20 102.25 53.25 62 76 22 89.25q0 64.5-34.5 111-26.5 36-71 69.5-15 11.5-33 28-35 29-35 57 0 33 46 74.5 15.5 13.5 38 37 20 22 32.75 55.5t12.75 74q0 52-22.75 98.25t-63.25 71.75h78l77.5 45h-252q-54.5 0-108-11-80.5-18-135-82t-54.5-144.5q0-84.5 61-141.5t148-57q9 0 40 3-1.5-6-8.5-24.5-4-10.5-4-25 0-39.5 37-86-38-0.5-87-7.5-112.5-18-173-61.5-35-26-55.75-66t-20.75-76.5zM107 79q0 34.5 15.5 62 28 48.5 96.5 69.5 59.5 18.5 123.5 18.5 9 0 28.5-1.5 0.5 0 16.75-11.25t20.25-13.75q14-9.5 36.5-28 1.5-1.5 9-8.5t13.25-13 8.75-10q1.5-2 3.25-4.75t4.25-6.75 4.5-6.5q6-9.5 10-19.5 8-25 8-44.5 0-35.5-15.5-62.75t-43-42.75q-52-30-123-30-78 0-143 35.5-34 17.5-54 48.5t-20 69.5zM169.5 655.5q0 58 30.5 96.75t82.5 38.75q37 0 68-23t49.5-61q36-76 36-148.5 0-60.5-25.75-94t-79.75-33.5q-28.5 0-56 15-46 26-78 92.5-27 58.5-27 117zM591 611h148v-148h73.5v148h147.5v74h-147.5v147h-73.5v-147h-148v-74z" />
<glyph unicode="&#xf05b;" glyph-name="linked-in-circle" d="M0 352q0 97.5 38 186.5t102.25 153.25 153.25 102.25 186.5 38 186.5-38 153.25-102.25 102.25-153.25 38-186.5-38-186.5-102.25-153.25-153.25-102.25-186.5-38-186.5 38-153.25 102.25-102.25 153.25-38 186.5zM232.5 197.5q0-38.5 27.25-65.5t65.75-27h309.5q38.5 0 65.75 27t27.25 65.5v309.5q0 38.5-27.25 65.5t-65.75 27h-309.5q-38.5 0-65.75-27t-27.25-65.5v-309.5zM315.5 197.5v206q0 4 3 7.25t7 3.25h62q4 0 7-3.25t3-7.25v-206q0-4-3-7.25t-7-3.25h-62q-4 0-7 3.25t-3 7.25zM315.5 477.5q0 16 11.75 28t27.75 12q16.5 0 28.25-11.75t11.75-28.25-11.5-28q-12-12-28.5-12-16 0-27.75 11.5t-11.75 28.5zM418.5 197.5v207.5q0 4 4.75 6.5t9.25 2.5h57q11.5 0 11.5-11.5 0 1.5 4 4 23 14.5 51.5 14.5 42 0 65.25-21.25t23.25-62.25v-140q0-4-3-7.25t-7-3.25h-60q-4.5 0-8.25 3.25t-3.75 7.25v126.5q0 17-5.25 24t-20.25 7q-36.5 0-36.5-45v-112.5q0-4-3-7.25t-6.5-3.25h-59q-4.5 0-9.25 3.25t-4.75 7.25z" />
<glyph unicode="&#xf05c;" glyph-name="linked-in" d="M0 52v600q0 74.5 52.75 127.25t127.25 52.75h600q74.5 0 127.25-52.75t52.75-127.25v-600q0-74.5-52.75-127.25t-127.25-52.75h-600q-74.5 0-127.25 52.75t-52.75 127.25zM160 52q0-8 6-14t14-6h120q8 0 14 5.75t6 14.25v400q0 8-6 14t-14 6h-120q-8 0-14-6t-6-14v-400zM160 594.5q0-32 22.5-54.75t54.5-22.75q33.5 0 55 23 22.5 22.5 22.5 54.5t-22.75 54.75-54.75 22.75-54.5-22.75-22.5-54.75zM360 52q0-8 9.5-14t19-6h114q7 0 12.25 6t5.25 14v218q0 87.5 71.5 87.5 29.5 0 39-13t9.5-47v-245.5q0-8 7.5-14t16.5-6h116q8 0 14 5.75t6 14.25v271.5q0 78.5-45.25 120.25t-127.25 41.75q-56.5 0-98.5-28.5-8.5-5-9-7.5 0 22.5-21.5 22.5h-110q-10 0-19.25-5t-9.25-12.5v-402.5z" />
<glyph unicode="&#xf05d;" glyph-name="instagram" d="M0 52v294.5h220.5q24.5-85.5 96.5-140.25t163-54.75 163 54.75 96.5 140.25h220.5v-294.5q0-74.5-52.75-127.25t-127.25-52.75h-600q-74.5 0-127.25 52.75t-52.75 127.25zM0 496v156q0 74.5 52.75 127.25t127.25 52.75h600q74.5 0 127.25-52.75t52.75-127.25v-156h-220.5q-24.5 85.5-96.5 140.5t-163 55-163-55-96.5-140.5h-220.5zM330.5 421.5q0-62.5 43.75-106.25t105.75-43.75q62.5 0 106.5 44t44 106-44 106-106.5 44q-62 0-105.75-43.75t-43.75-106.25z" />
<glyph unicode="&#xf05e;" glyph-name="instagram-circle" d="M0 352q0 97.5 38 186.5t102.25 153.25 153.25 102.25 186.5 38 186.5-38 153.25-102.25 102.25-153.25 38-186.5-38-186.5-102.25-153.25-153.25-102.25-186.5-38-186.5 38-153.25 102.25-102.25 153.25-38 186.5zM275.5 219q0-32 22.25-54.5t54.25-22.5h256q32 0 54.25 22.5t22.25 54.5v126h-94q-10-36.5-40.75-60t-69.75-23.5-69.5 23.5-41.5 60h-93.5v-126zM275.5 409h93.5q11 36.5 41.5 59.5t69.5 23 69.75-23 40.75-59.5h94v66q0 32-22.25 54.25t-54.25 22.25h-256q-32 0-54.25-22.25t-22.25-54.25v-66zM416 377q0-26.5 18.75-45.25t45.25-18.75 45.25 18.75 18.75 45.25-18.75 45.25-45.25 18.75-45.25-18.75-18.75-45.25z" />
<glyph unicode="&#xf05f;" glyph-name="mfg-icon" horiz-adv-x="1170" d="M0 544q0-45 32.75-76.75t78.75-31.75h128.5v-383.5l587.5 383.5h231q46 0 78.5 31.75t32.5 76.75q0 44.5-32.5 76.25t-78.5 31.75h-298.5l-297.5-194v194h-351q-46 0-78.75-31.75t-32.75-76.25z" />
<glyph unicode="&#xf060;" glyph-name="mfg-icon-circle" d="M0 352q0 97.5 38 186.5t102.25 153.25 153.25 102.25 186.5 38 186.5-38 153.25-102.25 102.25-153.25 38-186.5-38-186.25-102.25-153.25-153.25-102.5-186.5-38-186.5 38-153.25 102.5-102.25 153.25-38 186.25zM167 399q0-24.5 17.5-42t42-17.5h69v-211.5l315 211.5h123q24.5 0 42 17.5t17.5 42-17.5 42.25-42 17.75h-160l-159-107.5v107.5h-188q-24.5 0-42-17.75t-17.5-42.25z" />
<glyph unicode="&#xf061;" glyph-name="user" horiz-adv-x="1050" d="M0-128q0 9 1 23.75t11 47.5 28 50.75q17.5 17.5 69.5 38.5t117.5 44.25 96 38.75q38.5 19.5 59.75 57t21.25 78q0 27.5-33 65-33.5 38.5-54.25 104.75t-20.75 152.75q0 65 18.5 115.75t50.5 81.25 72.75 46.25 87.25 15.75 86.75-15.75 72.5-46.25 50.75-81.25 18.5-115.75q0-86.5-20.5-152.75t-54-104.75q-33.5-38-33.5-65 0-40 21.5-77.75t60-57.25q30.5-15.5 96-38.75t117-44.25 69-38.5q18-18 28-48.5t11-52l1.5-21.5h-1049.5z" />
<glyph unicode="&#xf062;" glyph-name="user-male" horiz-adv-x="1001" d="M0-128q0 9 1 23t10.75 45.75 27.25 49.25q17 17 66 37.25t111.25 42.75 91.75 37.5q37 18 57 54.75t20 75.75q0 27.5-31.5 63-18.5 22-32 60-44.5 18.5-44.5 74.5 0 41.5 14.5 60-4 28-9 82.5-1 8-2.25 21.25t2.5 45.25 15.75 54q19 33.5 48.25 46.25t47.75 4.75q0.5 0 0.5 0.5 1 5 4.5 13.25t14.5 22 25.5 21.25q8 4 26 6.25t43.75 0.5 53.5-7.75 55.5-21.75 49.75-38.75 36.25-60.75 14.75-85.75q0.5-10.5 0-20.5-4-46-9.5-82.5 14.5-18.5 14.5-60 0-56-44.5-74.5-13.5-38-32-60-31.5-35.5-31.5-63 0-39 20-75.75t57-54.75q29.5-15 91.75-37.5t111.5-42.75 66.25-37.25q17.5-17.5 27-47t10.5-50.5l1-20.5h-1001z" />
<glyph unicode="&#xf063;" glyph-name="user-female" horiz-adv-x="1019" d="M0-128q0 9 1 23.25t11 46.25 27.5 50q17 17.5 67 38.25t113.5 43.75 93.5 38q33 17 53.25 48.5t24.25 66.5h-83q-2 9-5 24.25t-10 60.75-12 88.5-7.25 98.5 0.75 99.75 15.25 83.25 33.75 58q19 19.5 42.75 26.25t34.75-0.25q1 0 1.5 0.5 0 1.5 2.5 8 13 34.5 42.5 49 18 9.5 63.5 8 2 0 7-0.25t7-0.25h1.5q25.5-2 57.5-11 27.5-8 51-20.5t47.75-35.75 40.75-54 25.5-77.25 6-103q-3.5-68.5-9.5-125t-11.5-88-10.75-53-8.25-29l-3.5-7.5h-83q4-35.5 24-66.75t53-48.25q30-15 93.5-38t113.75-43.75 67.25-38.25q17.5-18 27.5-47.75t11-50.75l1-21h-1019.5z" />
<glyph unicode="&#xf064;" glyph-name="users" horiz-adv-x="1230" d="M0 43.5q20 8 61 22.75t71.25 26.75 51.25 22.5q37.5 19.5 58.5 57.25t21 78.25q0 27.5-32 65-19 21.5-33.5 62-46 18-46 77.5 0 44 14 62.5-5 40-9 84.5-4.5 56.5 27.25 110.25t86 86.5 112.75 32.75q44 0 86.75-19.75t74.25-51.25 49.75-73.75 14.75-84.75q-5-57-9-84.5 14.5-19 14.5-62.5 0-59-46-77.5-15.5-42-33-62-33-37.5-33-65 0-40.5 21-78.25t59-57.25q30.5-15.5 95-38.75t115.5-44.25 68-38.5q18-18 28-48.5t11-52l1-21.5h-900v171.5zM722.5 350q0 35.5 12 51-5.5 33.5-7.5 69-3.5 46.5 22.25 91.5t70.25 73.25 92 28.25 92-28.25 70.25-73.25 22.25-91.5q-2-35.5-7.5-69 12-15.5 12-51 0-48.5-37.5-63.5-11.5-33.5-27-51-9-10.5-13.25-16.25t-9-16.5-4.75-20.75q0-32.5 17.25-63.75t48.25-46.75q18-9 43.75-19.25t60.75-22.75 51.5-19v-138.5h-260q0 4-0.25 11t-3 26.5-7.5 37.25-14.75 38.5-23.5 34.25q-24.5 25-54.5 44.75t-81.5 38.25q28 34.5 28 79.5 0 10-4.75 20.75t-8.75 16.5-12.5 16.25q-14 15.5-27.5 50.5-37.5 16.5-37.5 64z" />
<glyph unicode="&#xf067;" glyph-name="file-close" d="M0 50v524.5q0 36 26.75 61.75t63.75 25.75h30q3 34 28.75 57.25t61.25 23.25h200q35.5 0 61.25-23.25t28.25-57.25h369.5q37.5 0 64-25.75t26.5-61.75v-524.5q0-36-26.5-62t-64-26h-779q-37 0-63.75 26t-26.75 62z" />
<glyph unicode="&#xf068;" glyph-name="file-alt" horiz-adv-x="1073" d="M0 52v521q0 36 25.75 61.25t61.75 25.25h29.5q2.5 33.5 27.5 56.75t59.5 23.25h195q34 0 59-23.25t27.5-56.75h359.5q36 0 61.75-25.25t25.75-61.25v-87h67.5q36 0 56.75-25.5t14.25-61.5l-101.5-347q-6.5-36-37.25-61.5t-67.25-25.5h-777.5q-36 0-61.75 25.5t-25.75 61.5zM87.5 226l50 173q7 36 37.75 61.5t67.25 25.5h602.5v87h-757.5v-347zM128 52h737q5 0 11.5 5.25t7.5 10.75l0.5 4 1 4 94 323h-737q-4.5 0-11.25-5.25t-7.25-10.75l-0.5-4-1-4z" />
<glyph unicode="&#xf069;" glyph-name="file-close-alt" d="M0 50v524.5q0 36 26.75 61.75t63.75 25.75h30.5q2.5 34 28.25 57.25t61.25 23.25h200.5q35.5 0 61-23.25t28-57.25h370.5q37 0 63.25-25.75t26.25-61.75v-524.5q0-36-26.25-62t-63.25-26h-780q-37 0-63.75 26t-26.75 62zM90.5 50h780v524.5h-780v-524.5z" />
<glyph unicode="&#xf06a;" glyph-name="attachment" horiz-adv-x="850" d="M0 43q0-70.5 49.5-121 50-50 120-50t120 50l493.5 496q66.5 66.5 66.5 163 0 95.5-66.5 162t-161.25 66.5-161.25-66.5l-375.5-377.5 56-57.5 375.5 378q44 44 105.5 44t105.5-44q43.5-43.5 43.5-105t-43.5-106l-494-496q-26.5-26.5-64-26.5t-64 26.5q-26 26-26 64t26 64l411 414q9 9 21.75 9t21.75-9q8.5-8.5 8.5-21.5 0-12.5-8.5-21l-308.5-311 56-57 308 311q32.5 32.5 32.5 78 0 47-32.5 78.5-32 32.5-77.25 32.5t-77.25-32.5l-411.5-414q-49.5-50.5-49.5-121z" />
<glyph unicode="&#xf06d;" glyph-name="check-circle" d="M0 352q0 97.5 38 186.5t102.25 153.25 153.25 102.25 186.5 38 186.5-38 153.25-102.25 102.25-153.25 38-186.5-38-186.5-102.25-153.25-153.25-102.25-186.5-38-186.5 38-153.25 102.25-102.25 153.25-38 186.5zM181 320q0-22.5 15.5-38.5l157-156.5q14.5-16 38.5-16 22.5 0 38.5 16l322.5 322.5q16 16 16 38.5t-16 38-38.5 15.5-38.5-15.5l-284-284-118.5 118q-15.5 16-38.25 16t-38.75-16q-15.5-15.5-15.5-38z" />
<glyph unicode="&#xf06e;" glyph-name="cancel-circle" d="M0 352q0 97.5 38 186.5t102.25 153.25 153.25 102.25 186.5 38 186.5-38 153.25-102.25 102.25-153.25 38-186.5-38-186.5-102.25-153.25-153.25-102.25-186.5-38-186.5 38-153.25 102.25-102.25 153.25-38 186.5zM267 193q0-22.5 16-38 15.5-16 37.5-16 22.5 0 38.5 16l121 121 121.5-121q15.5-16 38-16 22 0 38 16 15.5 15.5 15.5 38t-15.5 38l-121.5 121 121.5 122q15.5 15.5 15.5 38t-15.5 38-38 15.5-38-15.5l-121.5-122-121 122q-16 15.5-38.25 15.5t-37.75-15.5q-16-15.5-16-38t16-38l121-122-121-121q-16-15.5-16-38z" />
<glyph unicode="&#xf070;" glyph-name="inbox" horiz-adv-x="1141" d="M0 182v196q0 27.5 19.5 52l105.5 138q24.5 34.5 65.5 34.5h760q40.5 0 65-34.5l105.5-138q19.5-24.5 19.5-52v-196q0-33-23.5-56.5t-56.5-23.5h-980.5q-33 0-56.5 23.5t-23.5 56.5zM129.25 383.75q7.25-12.75 28.25-12.75h216q0-33 23.25-56.5t56.25-23.5h234.5q33 0 56.25 23.5t23.25 56.5h216q21 0 28 12.75t-4 30.25l-56.5 92q-11.5 18-34.25 30.75t-43.75 12.75h-604.5q-21 0-43.5-12.75t-34-30.75l-57.5-92q-11-17.5-3.75-30.25z" />
<glyph unicode="&#xf074;" glyph-name="trophy" horiz-adv-x="847" d="M0 552.5q0.5 35.5 18.5 65 20.5 33.5 58.75 49t83.75 8.5q-1 33-1 51 0 45.5 70.75 75.75t192.75 30.25q121.5 0 192.25-30.25t70.75-75.75q0-1.5-1.5-51 45.5 7 84-8.5t59.5-49q18-29.5 18.25-65t-17.25-70.5q-13.5-27-46.75-52t-96.25-62.5q-36.5-22-54.25-33.25t-47.75-32-49.5-39.25-32-37q-12.5-25-12.5-58 0-50 32.75-94.75t75.75-57.75q42-13 56.75-27.5t14.75-44.5-68.75-50.75-178.25-20.75-178.5 20.75-69 50.75 14.75 44.5 56.75 27.5q43 13 75.75 57.75t32.75 94.75q0 33-12.5 58-10 15-27 31.5t-31.75 28.25-42.25 30-39.75 25.75-42.75 26q-42.5 25-65.25 40t-45.75 35.25-32.5 39.25q-17 35-16.5 70.5zM92.5 571.5q-12.5-19 2-50 9.5-18.5 101.5-74-19.5 59-28.5 136.5-2 0.5-6.5 2t-6.5 2q-18.5 2.5-20.5 2.5-29.5 0-41.5-19zM257.5 722q0-20 48.5-34t117.5-14q68.5 0 116.75 14t48.25 34-48.25 34-116.75 14-117.25-14-48.75-34zM650.5 447.5q92 55.5 101.5 74 14.5 30.5 2.5 50-16.5 25.5-62.5 16.5-4-1-13-4-9.5-81-28.5-136.5z" />
<glyph unicode="&#xf075;" glyph-name="unlock-alt" horiz-adv-x="706" d="M0-37v402.5q0 14.5 10.25 24.25t25.25 9.75h460v152.5q0 65-43 110.5-42.5 43.5-99.5 43.5t-99.5-43.5q-42.5-45-42.5-110.5v-39h-129.5v39q0 56 20.75 107t57.75 90q36.5 39 86.75 61t106.25 22 106.5-22 87-61q37-39 57.5-90t20.5-107v-152.5h46.5q15 0 25.25-9.75t10.25-24.25v-402.5q0-13-8.25-19.5t-27.25-14.5q-10-4.5-35.5-12.5t-67.75-18.75-100.25-18.25-114.5-7.5q-158.5 0-317.5 57-17 5.5-26.25 13.25t-9.25 20.75zM191.5 137.75q0-12.25 8.5-20.75l87.5-85.5q8.5-8.5 21-8.5 13.5 0 21 8.5l179.5 175.5q9 9 9 21.25t-9 21.25q-8.5 8.5-21 8.5t-21-8.5l-158.5-155-65.5 64q-9 9-21.5 9t-21.5-9q-8.5-8.5-8.5-20.75z" />
<glyph unicode="&#xf07b;" glyph-name="link" horiz-adv-x="909" d="M8.25 92.5q-17.75 67.5 0 135t68.25 118l134.5 134q50.5 50.5 117.75 68.25t134.75 0 118-68.25q21-21 21-50.75t-21-50.75-50.75-21-50.75 21q-35 35-84 35t-83-35l-134.5-134.5q-34-35-34-83.75t34-83.75q35-34 83.5-34t83.5 34l27.5 28q79.5-38.5 168-36l-93.5-93.5q-50.5-50.5-118-68.25t-135 0-118 68.25-68.25 118zM306 276.25q0 29.75 21.5 50.75 21 21 50.75 21t50.75-21q34-35 83-35t84 35l134.5 134.5q35 35 35 83.75t-35 82.75q-34 35-83 35t-84-35l-28-27q-79 37.5-167.5 36l93.5 93.5q50.5 50 118 67.75t135 0 117.5-67.75q50.5-50.5 68.25-118t0-135-68.25-118l-134.5-134q-50.5-50.5-118-68.5t-134.75 0-117.25 68.5q-21.5 21-21.5 50.75z" />
<glyph unicode="&#xf07e;" glyph-name="magnifying-plus" horiz-adv-x="1071" d="M11.5 379.25q-24.5 92.75 0 185.5t94 161.75q52 52 118.25 78.75t136.75 26.75q71 0 137-26.75t118-78.75q55.5-55 82.5-127.25t22.75-147-38.25-142.25q32-10.5 53-31.5l186-186.5q38-38 38-91t-38-91-90.5-38q-53.5 0-91.5 38l-186.5 186q-20.5 20.5-31.5 53.5-77-38-161-38-70.5 0-136.75 26.75t-118.25 78.75q-69.5 69.5-94 162.25zM121 472q0-100 70-170 34-34 77.75-52.25t91.75-18.25q100.5 0 170 70.5 34 33.5 52.25 77.5t18.25 92q0 100-70.5 170.5-70 70-170 70-99.5 0-169.5-70t-70-170zM760.5 677q0 12.5 9 21.25t21 8.75h96v95.5q0 12.5 8.5 21t21 8.5 21-8.5 8.5-21v-95.5h96q12 0 21-8.75t9-21.25-9-21.25-21-8.75h-96v-95.5q0-12.5-8.5-21.25t-21-8.75q-12 0-21 9-8.5 8.5-8.5 21v95.5h-96q-12 0-21.5 8.5-8.5 9.5-8.5 21.5z" />
<glyph unicode="&#xf07f;" glyph-name="magnifying-minus" horiz-adv-x="1071" d="M11.5 379.25q-24.5 92.75 0 185.5t94 161.75q52 52 118.25 78.75t136.75 26.75q71 0 137-26.75t118-78.75q55.5-55 82.5-127.25t22.75-147-38.25-142.25q32-10.5 53-31.5l186-186.5q38-38 38-91t-38-91-90.5-38q-53.5 0-91.5 38l-186.5 186q-23 23-31.5 53.5-77.5-38-161-38-70.5 0-136.75 26.75t-118.25 78.75q-69.5 69.5-94 162.25zM121 472q0-100 70-170 34-34 77.75-52.25t91.75-18.25 92.25 18.25 77.75 52.25q34 33.5 52.25 77.5t18.25 92q0 100-70.5 170.5-33.5 33.5-77.75 51.75t-92.25 18.25q-99.5 0-169.5-70t-70-170zM760.5 677q0 12.5 8.75 21.25t21.25 8.75h250.5q12.5 0 21.5-8.75t9-21.25-9-21.25-21.5-8.75h-250.5q-12 0-21.5 8.5-8.5 9.5-8.5 21.5z" />
<glyph unicode="&#xf080;" glyph-name="stop" horiz-adv-x="841" d="M0-2v707.5q0 27 19.25 46.75t46.25 20.75h710.5q27 0 46-19.5t19-47v-707.5q0-27.5-19-47t-46-20.5h-710.5q-27 0-46.25 19.5t-19.25 47z" />
<glyph unicode="&#xf081;" glyph-name="share" d="M0 85.5v502.5q0 71.5 50.75 122.25t122.25 50.75h132.5q29 0 49-20t20-48q0-29-20-49t-49-20h-132.5q-15 0-25.5-10.5t-10.5-25.5v-502.5q0-14.5 10.5-25.25t25.5-10.75h602.5q15 0 25.5 10.75t10.5 25.25v61.5q0 28 20 48.25t48 20.25q28.5 0 48.5-20t20-48.5v-61.5q0-71.5-50.5-122t-122-50.5h-602.5q-71.5 0-122.25 50.5t-50.75 122zM249.5 178q46.5 83 124.25 135.25t171.75 60.75q43 2.5 75-2v-105.5q0-23 11.75-31t27.25 4l290 212q10.5 8 10.5 20 0 5.5-2.5 10.5t-5.5 7.5l-2.5 2.5-290 211.5q-15.5 12.5-27.25 4.75t-11.75-30.75v-87q-6.5 0-20.5-1-74-6.5-139.75-42t-112.25-90.25-73.25-127.75-25.25-151.5z" />
<glyph unicode="&#xf082;" glyph-name="eye" d="M0 352q0 30.5 15.75 69t44.25 79.25 72 79.75 94.75 69.75 117.5 49.5 135.75 18.75 135.75-18.75 117.5-49.5 94.75-69.75 72-79.75 44.25-79.25 15.75-69q0-30-15.75-68.5t-44.25-79.25-72-79.5-94.75-69.5-117.5-49.5-135.75-18.75-135.75 18.75-117.5 49.5-94.75 69.5-72 79.5-44.25 79.25-15.75 68.5zM240 352q0-65 32.25-120t87.5-87 120.25-32 120.25 32 87.5 87 32.25 120-32.25 120.25-87.5 87.5-120.25 32.25-120.25-32.25-87.5-87.5-32.25-120.25zM379.5 352q0-41.5 29.5-71t71-29.5 71 29.5 29.5 71q0 42-29.5 71.75t-71 29.75-71-29.75-29.5-71.75z" />
<glyph unicode="&#xf083;" glyph-name="trash-can" horiz-adv-x="906" d="M0 694.5q0 37.5 60.5 69t165 50 227.5 18.5q123.5 0 228-18.5t165-50 60.5-69q-10.5-82.5-39.5-233t-56.75-282.5-29.25-141.5q-6.5-37-40.75-69t-82.5-52.5-102.25-32.25-102.5-11.75-102.5 11.75-102 32.25-82.25 52.5-40.75 69q-4 21.5-33.5 164.25t-57 285-35 207.75zM129.5 465.5l38.5-187.5 89 77zM135 664q0-32.5 93-55.25t225-22.75q132.5 0 225.5 22.75t93 55.25q0 33-93.25 56t-225.25 23-225-23-93-56zM191.5 164l21.5-105 50.5 43.5zM199.5 483l103.5-89 73 63.5q-97 6-176.5 25.5zM205 231l103.5-89.5 98.5 84.5-104 89.5zM255.5 17q73-31 152-38.5l-99 84.5zM348 355l104-89.5 98.5 84.5-102 91.5zM354.5 102.5l104.5-90.5 97 85.5-104 89.5zM497.5 226l103.5-89 94.5 82-100.5 91zM512-20.5q72.5 8.5 137.5 36.5l-48 42zM520.5 457l75-68 108.5 93.5q-81-20.5-183.5-25.5zM640 349l95.5-86 42 204zM647 97.5l46-40 20 98z" />
<glyph unicode="&#xf084;" glyph-name="hard-drive" horiz-adv-x="1029" d="M0 169v204.5q0 26.5 17.5 46.5h-0.5l95.5 125.5q21.5 30.5 59 30.5h67.5q114.5 31 275.5 31 160.5 0 275-31h67.5q37.5 0 59-30.5l95.5-125.5h-0.5q17.5-20 17.5-46.5v-204.5q0-29.5-21-50.5t-50.5-21h-885q-30 0-51 21t-21 50.5zM101.5 230.5q0-16 11.25-27.25t27.25-11.25h90.5q15.5 0 26.75 11.25t11.25 27.25-11.25 27.25-26.75 11.25h-90.5q-16 0-27.25-11.25t-11.25-27.25zM176 472q0-23 45.25-42.25t123.25-30.5 170-11.25 169.75 11.25 123 30.5 45.25 42.25-45.25 42.25-123 30.5-169.75 11.25-170-11.25-123.25-30.5-45.25-42.25zM325.5 230.5q0-16 11.25-27.25t27.25-11.25h11q15.5 0 26.75 11.25t11.25 27.25-11.25 27.25-26.75 11.25h-11q-16 0-27.25-11.25t-11.25-27.25zM413 472q0 10 30 17.75t71.5 7.75q41 0 70.75-7.75t29.75-17.75-29.5-17.5-71-7.5q-42 0-71.75 7.5t-29.75 17.5z" />
<glyph unicode="&#xf085;" glyph-name="information-black" d="M0 352q0 98 38 186.75t102.25 153 153 102.25 186.75 38q97.5 0 186.5-38t153.25-102.25 102.25-153 38-186.75q0-97.5-38-186.5t-102.25-153.25-153.25-102.25-186.5-38q-98 0-186.75 38t-153 102.25-102.25 153.25-38 186.5zM408 526q0-29.5 19.75-47t52.25-17.5q33 0 52.5 17.5t19.5 47-19.5 46.75-52.5 17.25q-32.5 0-52.25-17.5t-19.75-46.5zM412.5 114.5h135.5v306.5h-135.5v-306.5z" />
<glyph unicode="&#xf086;" glyph-name="information-white" d="M0 352q0 98 38 186.75t102.25 153 153 102.25 186.75 38q97.5 0 186.5-38t153.25-102.25 102.25-153 38-186.75q0-97.5-38-186.5t-102.25-153.25-153.25-102.25-186.5-38q-98 0-186.75 38t-153 102.25-102.25 153.25-38 186.5zM120 352q0-73 28.5-139.75t76.75-115 115-76.75 139.75-28.5 139.75 28.5 115 76.75 76.75 115 28.5 139.75-28.5 139.75-76.75 115-115 76.75-139.75 28.5-139.75-28.5-115-76.75-76.75-115-28.5-139.75zM408 526q0 29 19.75 46.5t52.25 17.5q33 0 52.5-17.25t19.5-46.75-19.5-47-52.5-17.5q-32.5 0-52.25 17.5t-19.75 47zM412.5 114.5v306.5h135.5v-306.5h-135.5z" />
<glyph unicode="&#xf087;" glyph-name="printer" d="M0 88v524q0 36 26.75 61.75t63.75 25.75h60v14.5q0 36.5 26.25 62t63.25 25.5h480q37 0 63.25-25.5t26.25-62v-20.5q0 1 0.75 2.75t0.75 3.25h58.5q37 0 63.75-25.75t26.75-61.75v-524q0-36-26.5-61.5t-64-25.5h-60v-10q0-36.5-26.25-62.25t-63.25-25.75h-480q-37 0-63.25 25.75t-26.25 62.25v10h-60q-37.5 0-64 25.5t-26.5 61.5zM210.5-9q0-11.5 8.5-19.75t21-8.25h480q12.5 0 21.5 8.25t9 19.75v347q-21.5 12-46 12h-449.5q-23.5 0-44.5-12v-347zM210.5 618q15.5-6 30-6h480q12.5 0 30 5.5v96.5q0 11.5-9 19.5t-21.5 8h-480q-12.5 0-21-8t-8.5-19.5v-96z" />
<glyph unicode="&#xf088;" glyph-name="letter" d="M0 43.5l232.5 617.5h150l213-566 125.5 334.5h94l145-386h-98.5l-26.5 78h-138l-27.5-78h-212.5l-43.5 124.5h-219l-44-124.5h-150.5zM227 281h153.5l-76.5 221zM717.5 191.5h96l-48 139z" />
<glyph unicode="&#xf089;" glyph-name="soundcloud" horiz-adv-x="1074" d="M0 161.5q0-20 14.5-30.25t31-7.25q15.5 3 21.75 11t6.25 26.5v145q0 15.5-10.75 26.25t-26.25 10.75q-15 0-25.75-10.75t-10.75-26.25v-145zM115 99.5q0-14.5 10.25-21.75t26.25-7.25q16.5 0 26.75 7.25t10.25 21.75v338q0 15-10.75 25.75t-26.25 10.75q-15 0-25.75-10.75t-10.75-25.75v-338zM229.5 83.5q0-14.5 10.5-21.75t27-7.25q16 0 26.25 7.25t10.25 21.75v308.5q0 15.5-10.75 26.5t-25.75 11q-15.5 0-26.5-11t-11-26.5v-308.5zM344.5 82q0-27.5 37-27.5t37 27.5v500q0 42-25.5 47.5-16.5 4-32.5-9.5t-16-38v-500zM461.5 67.5v544q0 26 15.5 31 33.5 8 66.5 8 76.5 0 142.5-36t106.75-98.25 47.25-137.25q30.5 13 65 13 70 0 119.75-49.5t49.75-119q0-70-49.75-119.5t-119.25-49h-435q-4.5 1.5-6.75 5.5t-2.25 7z" />
<glyph unicode="&#xf08a;" glyph-name="soundcloud-circle" d="M0 352q0 97.5 38 186.5t102.25 153.25 153.25 102.25 186.5 38 186.5-38 153.25-102.25 102.25-153.25 38-186.5-38-186.5-102.25-153.25-153.25-102.25-186.5-38-186.5 38-153.25 102.25-102.25 153.25-38 186.5zM168.5 264q0-11.5 8.5-17.25t18.5-4.25q9 2 12.5 6.25t3.5 15.25v84q0 9-6 15.25t-15 6.25-15.5-6.25-6.5-15.25v-84zM235.5 228q0-8 6-12.5t15-4.5q9.5 0 15.75 4.5t6.25 12.5v195.5q0 9-6.5 15.5t-15.5 6.5q-8.5 0-14.75-6.5t-6.25-15.5v-195.5zM301.5 219q0-16.5 22-16.5 21 0 21 16.5v179q0 9-6.25 15t-14.75 6q-9 0-15.5-6t-6.5-15v-179zM368.5 218q0-15.5 21-15.5 22 0 22 15.5v289.5q0 24-15 27.5-9.5 2.5-18.75-5.25t-9.25-22.25v-289.5zM436 211q-1-6 5.5-8.5h251.5q41 0 69.5 28.25t29 69.25q0 40.5-28.75 69.25t-69.75 28.75q-18.5 0-37.5-8-5.5 66.5-55 112t-116.5 45.5q-20 0-39-4.5-9-3.5-9-18v-314z" />
<glyph unicode="&#xf4ac;" glyph-name="message" horiz-adv-x="1080" d="M0 407.5q0 69 27.25 133.25t77.25 116.5 116.25 91.25 148.75 60.5 170.5 21.5 170.5-21.5 148.75-60.5 116.25-91.25 77.25-116.5 27.25-133.25q0-86-42.75-164t-115-134.5-172.25-90-210-33.5q-107.5 0-206.5 32l-123-87q-69-43.5-97-25.25t-12.5 102.75l25.5 128q-60.5 56-93.5 125.5t-33 146z" />
</font>
</defs>
</svg>
